  0
SECTION
  2
HEADER
  9
$ACADVER
  1
AC1015
  9
$ACADMAINTVER
 70
  6
  9
$DWGCODEPAGE
  3
ANSI_1252
  9
$INSBASE
 10
0.0
 20
0.0
 30
0.0
  9
$EXTMIN
 10
1.243
 20
-89.893
 30
0.0
  9
$EXTMAX
 10
9.13
 20
-89.893
 30
0.0
  9
$LIMMIN
 10
0.0
 20
0.0
  9
$LIMMAX
 10
0.0
 20
0.0
  9
$ORTHOMODE
 70
  0
  9
$REGENMODE
 70
  1
  9
$FILLMODE
 70
  1
  9
$QTEXTMODE
 70
  0
  9
$MIRRTEXT
 70
  1
  9
$LTSCALE
 40
1.0
  9
$ATTMODE
 70
  1
  9
$TEXTSIZE
 40
0.5
  9
$TRACEWID
 40
1.0
  9
$TEXTSTYLE
  7
STANDARD
  9
$CLAYER
  8
0
  9
$CELTYPE
  6
Continuous
  9
$CECOLOR
 62
  7
  9
$CELTSCALE
 40
1.0
  9
$DISPSILH
 70
  0
  9
$DIMSCALE
 40
1.0
  9
$DIMASZ
 40
0.25
  9
$DIMEXO
 40
0.063
  9
$DIMDLI
 40
0.375
  9
$DIMRND
 40
0.0
  9
$DIMDLE
 40
0.0
  9
$DIMEXE
 40
0.125
  9
$DIMTP
 40
0.0
  9
$DIMTM
 40
0.0
  9
$DIMTXT
 40
0.15
  9
$DIMCEN
 40
0.09
  9
$DIMTSZ
 40
0.0
  9
$DIMTOL
 70
  0
  9
$DIMLIM
 70
  0
  9
$DIMTIH
 70
  1
  9
$DIMTOH
 70
  1
  9
$DIMSE1
 70
  0
  9
$DIMSE2
 70
  0
  9
$DIMTAD
 70
  1
  9
$DIMZIN
 70
  0
  9
$DIMBLK
  1

  9
$DIMASO
 70
  0
  9
$DIMSHO
 70
  1
  9
$DIMPOST
  1
<>in
  9
$DIMAPOST
  1

  9
$DIMALT
 70
  0
  9
$DIMALTD
 70
  2
  9
$DIMALTF
 40
1.0
  9
$DIMLFAC
 40
1.0
  9
$DIMTOFL
 70
  1
  9
$DIMTVP
 40
0.0
  9
$DIMTIX
 70
  0
  9
$DIMSOXD
 70
  0
  9
$DIMSAH
 70
  0
  9
$DIMBLK1
  1

  9
$DIMBLK2
  1

  9
$DIMSTYLE
  2
STANDARD
  9
$DIMCLRD
 70
  7
  9
$DIMCLRE
 70
  7
  9
$DIMCLRT
 70
  7
  9
$DIMTFAC
 40
1.0
  9
$DIMGAP
 40
0.063
  9
$DIMJUST
 70
  0
  9
$DIMSD1
 70
  0
  9
$DIMSD2
 70
  0
  9
$DIMTOLJ
 70
  1
  9
$DIMTZIN
 70
  0
  9
$DIMALTZ
 70
  0
  9
$DIMALTTZ
 70
  0
  9
$DIMUPT
 70
  0
  9
$DIMDEC
 70
  3
  9
$DIMTDEC
 70
  3
  9
$DIMALTU
 70
  2
  9
$DIMALTTD
 70
  2
  9
$DIMTXSTY
  7
STANDARD
  9
$DIMAUNIT
 70
  0
  9
$DIMADEC
 70
  3
  9
$DIMALTRND
 40
0.0
  9
$DIMAZIN
 70
  0
  9
$DIMDSEP
 70
  0
  9
$DIMATFIT
 70
  0
  9
$DIMFRAC
 70
  0
  9
$DIMLDRBLK
  1

  9
$DIMLUNIT
 70
  2
  9
$DIMLWD
 70
  0
  9
$DIMLWE
 70
  0
  9
$DIMTMOVE
 70
  0
  9
$LUNITS
 70
  2
  9
$LUPREC
 70
  2
  9
$SKETCHINC
 40
1.0
  9
$FILLETRAD
 40
1.0
  9
$AUNITS
 70
  0
  9
$AUPREC
 70
  2
  9
$MENU
  1
acad
  9
$ELEVATION
 40
0.0
  9
$PELEVATION
 40
0.0
  9
$THICKNESS
 40
0.0
  9
$LIMCHECK
 70
  0
  9
$CHAMFERA
 40
0.0
  9
$CHAMFERB
 40
0.0
  9
$CHAMFERC
 40
0.0
  9
$CHAMFERD
 40
0.0
  9
$SKPOLY
 70
  0
  9
$TDCREATE
 40
0.000000000
  9
$TDUCREATE
 40
0.000000000
  9
$TDUPDATE
 40
0.000000000
  9
$TDUUPDATE
 40
0.000000000
  9
$TDINDWG
 40
0.0000000000
  9
$TDUSRTIMER
 40
0.0000000000
  9
$USRTIMER
 70
  1
  9
$ANGBASE
 50
0.0
  9
$ANGDIR
 70
  0
  9
$PDMODE
 70
  0
  9
$PDSIZE
 40
0.0
  9
$PLINEWID
 40
0.0
  9
$SPLFRAME
 70
  0
  9
$SPLINETYPE
 70
  5
  9
$SPLINESEGS
 70
 20
  9
$HANDSEED
  5
7C
  9
$SURFTAB1
 70
  6
  9
$SURFTAB2
 70
  6
  9
$SURFTYPE
 70
  6
  9
$SURFU
 70
  6
  9
$SURFV
 70
  6
  9
$UCSBASE
  2

  9
$UCSNAME
  2

  9
$UCSORG
 10
0.0
 20
0.0
 30
0.0
  9
$UCSXDIR
 10
1.0
 20
0.0
 30
0.0
  9
$UCSYDIR
 10
0.0
 20
1.0
 30
0.0
  9
$UCSORTHOREF
  2

  9
$UCSORTHOVIEW
 70
  0
  9
$UCSORGTOP
 10
0.0
 20
0.0
 30
0.0
  9
$UCSORGBOTTOM
 10
0.0
 20
0.0
 30
0.0
  9
$UCSORGLEFT
 10
0.0
 20
0.0
 30
0.0
  9
$UCSORGRIGHT
 10
0.0
 20
0.0
 30
0.0
  9
$UCSORGFRONT
 10
0.0
 20
0.0
 30
0.0
  9
$UCSORGBACK
 10
0.0
 20
0.0
 30
0.0
  9
$PUCSBASE
  2

  9
$PUCSNAME
  2

  9
$PUCSORG
 10
0.0
 20
0.0
 30
0.0
  9
$PUCSXDIR
 10
1.0
 20
0.0
 30
0.0
  9
$PUCSYDIR
 10
0.0
 20
1.0
 30
0.0
  9
$PUCSORTHOREF
  2

  9
$PUCSORTHOVIEW
 70
  0
  9
$PUCSORGTOP
 10
0.0
 20
0.0
 30
0.0
  9
$PUCSORGBOTTOM
 10
0.0
 20
0.0
 30
0.0
  9
$PUCSORGLEFT
 10
0.0
 20
0.0
 30
0.0
  9
$PUCSORGRIGHT
 10
0.0
 20
0.0
 30
0.0
  9
$PUCSORGFRONT
 10
0.0
 20
0.0
 30
0.0
  9
$PUCSORGBACK
 10
0.0
 20
0.0
 30
0.0
  9
$USERI1
 70
  0
  9
$USERI2
 70
  0
  9
$USERI3
 70
  0
  9
$USERI4
 70
  0
  9
$USERI5
 70
  0
  9
$USERR1
 40
0.0
  9
$USERR2
 40
0.0
  9
$USERR3
 40
0.0
  9
$USERR4
 40
0.0
  9
$USERR5
 40
0.0
  9
$WORLDVIEW
 70
  1
  9
$SHADEDGE
 70
  3
  9
$SHADEDIF
 70
 70
  9
$TILEMODE
 70
  0
  9
$MAXACTVP
 70
 16
  9
$PINSBASE
 10
0.0
 20
0.0
 30
0.0
  9
$PLIMCHECK
 70
  0
  9
$PEXTMIN
 10
1.25
 20
-1.25
 30
0.0
  9
$PEXTMAX
 10
9.75
 20
9.75
 30
0.0
  9
$PLIMMIN
 10
1.25
 20
-1.25
  9
$PLIMMAX
 10
9.75
 20
9.75
  9
$UNITMODE
 70
  0
  9
$VISRETAIN
 70
  0
  9
$PLINEGEN
 70
  1
  9
$PSLTSCALE
 70
  1
  9
$TREEDEPTH
 70
3020
  9
$CMLSTYLE
  2
STANDARD
  9
$CMLJUST
 70
  0
  9
$CMLSCALE
 40
1.0
  9
$PROXYGRAPHICS
 70
  0
  9
$MEASUREMENT
 70
  0
  9
$CELWEIGHT
370
  0
  9
$ENDCAPS
280
  0
  9
$JOINSTYLE
280
  0
  9
$LWDISPLAY
290
  0
  9
$INSUNITS
 70
  0
  9
$HYPERLINKBASE
  1

  9
$STYLESHEET
  1

  9
$XEDIT
290
  1
  9
$CEPSNTYPE
380
  0
  9
$PSTYLEMODE
290
  1
  9
$FINGERPRINTGUID
  2

  9
$VERSIONGUID
  2

  9
$EXTNAMES
290
  1
  9
$PSVPSCALE
 40
0.0
  0
ENDSEC
  0
SECTION
  2
CLASSES
  0
CLASS
  1
LWPOLYLINE
  2
AcDbPolyline
  3
AutoCAD 2000
 90
        0
280
  0
281
  1
  0
CLASS
  1
IMAGE
  2
AcDbRasterImage
  3
ISM
 90
    32895
280
  0
281
  1
  0
CLASS
  1
OLE2FRAME
  2
AcDbOle2Frame
  3
AutoCAD 2000
 90
    32768
280
  0
281
  1
  0
CLASS
  1
HATCH
  2
AcDbHatch
  3
AutoCAD 2000
 90
        0
280
  0
281
  1
  0
CLASS
  1
DICTIONARYVAR
  2
AcDbDictionaryVar
  3
AutoCAD 2000
 90
    32768
280
  0
281
  0
  0
CLASS
  1
RASTERVARIABLES
  2
AcDbRasterVariables
  3
ISM
 90
    32768
280
  0
281
  0
  0
CLASS
  1
IMAGEDEF
  2
AcDbRasterImageDef
  3
ISM
 90
    32768
280
  0
281
  0
  0
CLASS
  1
IMAGEDEF_REACTOR
  2
AcDbRasterImageDefReactor
  3
ISM
 90
    32769
280
  0
281
  0
  0
CLASS
  1
IDBUFFER
  2
AcDbIdBuffer
  3
AutoCAD 2000
 90
    32768
280
  0
281
  0
  0
CLASS
  1
SPATIAL_FILTER
  2
AcDbSpatialFilter
  3
AutoCAD 2000
 90
    32768
280
  0
281
  0
  0
CLASS
  1
XRECORD
  2
AcDbXrecord
  3
AutoCAD 2000
 90
    32768
280
  0
281
  0
  0
CLASS
  1
SORTENTSTABLE
  2
AcDbSortentsTable
  3
AutoCAD 2000
 90
    32768
280
  0
281
  0
  0
CLASS
  1
LAYER_INDEX
  2
AcDbLayerIndex
  3
AutoCAD 2000
 90
    32768
280
  0
281
  0
  0
CLASS
  1
SPATIAL_INDEX
  2
AcDbSpatialIndex
  3
AutoCAD 2000
 90
    32768
280
  0
281
  0
  0
CLASS
  1
OBJECT_PTR
  2
CAseDLPNTableRecord
  3
"ASE-LPNTableRecord"
 90
    32769
280
  0
281
  0
  0
CLASS
  1
LAYOUT
  2
AcDbLayout
  3
AutoCAD 2000
 90
        0
280
  0
281
  0
  0
CLASS
  1
PLOTSETTINGS
  2
AcDbPlotSettings
  3
AutoCAD 2000
 90
    32768
280
  0
281
  0
  0
CLASS
  1
ACDBDICTIONARYWDFLT
  2
AcDbDictionaryWithDefault
  3
AutoCAD 2000
 90
        0
280
  0
281
  0
  0
CLASS
  1
ACDBPLACEHOLDER
  2
AcDbPlaceHolder
  3
AutoCAD 2000
 90
        0
280
  0
281
  0
  0
ENDSEC
  0
SECTION
  2
TABLES
  0
TABLE
  2
VPORT
  5
7
100
AcDbSymbolTable
 70
  1
  0
VPORT
  5
15
100
AcDbSymbolTableRecord
100
AcDbViewportTableRecord
  2
*ACTIVE
 70
  0
 10
0.0
 20
0.0
 11
1.0
 21
1.0
 12
4.931
 22
3.799
 13
0.0
 23
0.0
 14
0.5
 24
0.5
 15
0.5
 25
0.5
 16
0.0
 26
0.0
 36
1.0
 17
0.0
 27
0.0
 37
0.0
 40
3.617
 41
1.695
 42
50.0
 43
0.0
 44
0.0
 50
0.0
 51
0.0
 71
  0
 72
100
 73
  1
 74
  1
 75
  0
 76
  0
 77
  0
 78
  0
281
  0
 65
  0
110
0.0
120
0.0
130
0.0
111
1.0
121
0.0
131
0.0
112
0.0
122
1.0
132
0.0
345
0
346
0
 79
  0
146
0.0
  0
ENDTAB
  0
TABLE
  2
LTYPE
  5
4
100
AcDbSymbolTable
 70
 15
  0
LTYPE
  5
11
100
AcDbSymbolTableRecord
100
AcDbLinetypeTableRecord
  2
ByBlock
 70
 64
  3

 72
 65
 73
  0
 40
0.0
  0
LTYPE
  5
12
100
AcDbSymbolTableRecord
100
AcDbLinetypeTableRecord
  2
ByLayer
 70
 64
  3

 72
 65
 73
  0
 40
0.0
  0
LTYPE
  5
13
100
AcDbSymbolTableRecord
100
AcDbLinetypeTableRecord
  2
Continuous
 70
 64
  3
Solid line
 72
 65
 73
  0
 40
0.0
  0
LTYPE
  5
24
100
AcDbSymbolTableRecord
100
AcDbLinetypeTableRecord
  2
BORDER
 70
  0
  3
BORDER
 72
 65
 73
  6
 40
1.75
 49
0.5
 74
  0
 49
-0.25
 74
  0
 49
0.5
 74
  0
 49
-0.25
 74
  0
 49
0.0
 74
  0
 49
-0.25
 74
  0
  0
LTYPE
  5
25
100
AcDbSymbolTableRecord
100
AcDbLinetypeTableRecord
  2
CENTER
 70
  0
  3
CENTER
 72
 65
 73
  4
 40
2.0
 49
1.25
 74
  0
 49
-0.25
 74
  0
 49
0.25
 74
  0
 49
-0.25
 74
  0
  0
LTYPE
  5
26
100
AcDbSymbolTableRecord
100
AcDbLinetypeTableRecord
  2
DASHDOT
 70
  0
  3
DASHDOT
 72
 65
 73
  4
 40
1.0
 49
0.5
 74
  0
 49
-0.25
 74
  0
 49
0.0
 74
  0
 49
-0.25
 74
  0
  0
LTYPE
  5
27
100
AcDbSymbolTableRecord
100
AcDbLinetypeTableRecord
  2
DASHED
 70
  0
  3
DASHED
 72
 65
 73
  2
 40
0.75
 49
0.5
 74
  0
 49
-0.25
 74
  0
  0
LTYPE
  5
28
100
AcDbSymbolTableRecord
100
AcDbLinetypeTableRecord
  2
DIVIDE
 70
  0
  3
DIVIDE
 72
 65
 73
  6
 40
1.25
 49
0.5
 74
  0
 49
-0.25
 74
  0
 49
0.0
 74
  0
 49
-0.25
 74
  0
 49
0.0
 74
  0
 49
-0.25
 74
  0
  0
LTYPE
  5
29
100
AcDbSymbolTableRecord
100
AcDbLinetypeTableRecord
  2
DOT
 70
  0
  3
DOT
 72
 65
 73
  2
 40
0.25
 49
0.0
 74
  0
 49
-0.25
 74
  0
  0
LTYPE
  5
2A
100
AcDbSymbolTableRecord
100
AcDbLinetypeTableRecord
  2
HIDDEN
 70
  0
  3
HIDDEN
 72
 65
 73
  2
 40
0.375
 49
0.25
 74
  0
 49
-0.125
 74
  0
  0
LTYPE
  5
2B
100
AcDbSymbolTableRecord
100
AcDbLinetypeTableRecord
  2
PHANTOM
 70
  0
  3
PHANTOM
 72
 65
 73
  6
 40
2.5
 49
1.25
 74
  0
 49
-0.25
 74
  0
 49
0.25
 74
  0
 49
-0.25
 74
  0
 49
0.25
 74
  0
 49
-0.25
 74
  0
  0
LTYPE
  5
2C
100
AcDbSymbolTableRecord
100
AcDbLinetypeTableRecord
  2
$INVISIBLE
 70
  0
  3
$INVISIBLE
 72
 65
 73
  2
 40
200.0
 49
-100.0
 74
  0
 49
-100.0
 74
  0
  0
LTYPE
  5
2D
100
AcDbSymbolTableRecord
100
AcDbLinetypeTableRecord
  2
$SNAPEXT
 70
  0
  3
$SNAPEXT
 72
 65
 73
  2
 40
0.04
 49
0.02
 74
  0
 49
-0.02
 74
  0
  0
LTYPE
  5
2E
100
AcDbSymbolTableRecord
100
AcDbLinetypeTableRecord
  2
$CONSTRUCTION
 70
  0
  3
$CONSTRUCTION
 72
 65
 73
  4
 40
0.3
 49
0.2
 74
  0
 49
-0.05
 74
  0
 49
0.0
 74
  0
 49
-0.05
 74
  0
  0
LTYPE
  5
2F
100
AcDbSymbolTableRecord
100
AcDbLinetypeTableRecord
  2
$AUXILIARY
 70
  0
  3
$AUXILIARY
 72
 65
 73
  2
 40
0.1
 49
0.05
 74
  0
 49
-0.05
 74
  0
  0
ENDTAB
  0
TABLE
  2
LAYER
  5
2
100
AcDbSymbolTable
 70
  2
  0
LAYER
  5
14
100
AcDbSymbolTableRecord
100
AcDbLayerTableRecord
  2
0
 70
  0
 62
  7
  6
Continuous
290
  1
370
  0
390
0
1001
TCAD
1000
TCW_LAYER_ORDER
1002
{
1071
        0
1002
}
  0
LAYER
  5
30
100
AcDbSymbolTableRecord
100
AcDbLayerTableRecord
  2
$CONSTRUCTION
 70
  0
 62
  9
  6
$CONSTRUCTION
290
  1
370
  0
390
0
1001
TCAD
1000
TCW_LAYER_ORDER
1002
{
1071
        0
1002
}
  0
ENDTAB
  0
TABLE
  2
STYLE
  5
3
100
AcDbSymbolTable
 70
  3
  0
STYLE
  5
17
100
AcDbSymbolTableRecord
100
AcDbTextStyleTableRecord
  2
STANDARD
 70
  0
 40
0.0
 41
1.0
 50
0.0
 71
  0
 42
0.15
  3

  4

1001
ACAD
1000
Arial
1071
       34
  0
STYLE
  5
32
100
AcDbSymbolTableRecord
100
AcDbTextStyleTableRecord
  2
_TCW_TXTSTY_1
 70
  0
 40
0.0
 41
1.0
 50
0.0
 71
  0
 42
0.6
  3
TIMES.TTF
  4

1001
ACAD
1000
Times New Roman
1071
      290
  0
STYLE
  5
59
100
AcDbSymbolTableRecord
100
AcDbTextStyleTableRecord
  2
_TCW_TXTSTY_2
 70
  0
 40
0.0
 41
1.22
 50
0.0
 71
  0
 42
0.087
  3
TIMES.TTF
  4

1001
ACAD
1000
Times New Roman
1071
      290
  0
ENDTAB
  0
TABLE
  2
VIEW
  5
5
100
AcDbSymbolTable
 70
  1
  0
VIEW
  5
31
100
AcDbSymbolTableRecord
100
AcDbViewTableRecord
  2
View_0
 70
  0
 40
8.268
 10
5.846
 20
4.134
 41
11.693
 11
0.0
 21
0.0
 31
1.0
 12
0.0
 22
0.0
 32
0.0
 42
50.0
 43
0.0
 44
0.0
 50
0.0
 71
  0
281
  0
 72
  0
110
0.0
120
0.0
130
0.0
111
1.0
121
0.0
131
0.0
112
0.0
122
1.0
132
0.0
  0
ENDTAB
  0
TABLE
  2
UCS
  5
6
100
AcDbSymbolTable
 70
  0
  0
ENDTAB
  0
TABLE
  2
APPID
  5
8
100
AcDbSymbolTable
 70
  2
  0
APPID
  5
16
100
AcDbSymbolTableRecord
100
AcDbRegAppTableRecord
  2
ACAD
 70
  0
  0
APPID
  5
23
100
AcDbSymbolTableRecord
100
AcDbRegAppTableRecord
  2
TCAD
 70
  0
  0
ENDTAB
  0
TABLE
  2
DIMSTYLE
  5
9
100
AcDbSymbolTable
 70
  1
100
AcDbDimStyleTable
 71
  0
  0
DIMSTYLE
105
18
100
AcDbSymbolTableRecord
100
AcDbDimStyleTableRecord
  2
STANDARD
 70
  0
  3
<>in
  4

 40
1.0
 41
0.25
 42
0.063
 43
0.375
 44
0.125
 45
0.0
 46
0.0
 47
0.0
 48
0.0
 71
  0
 72
  0
 73
  1
 74
  1
 75
  0
 76
  0
 77
  1
 78
  0
 79
  0
140
0.15
141
0.09
142
0.0
143
1.0
144
1.0
145
0.0
146
1.0
147
0.063
148
0.01
170
  0
171
  2
172
  1
173
  0
174
  0
175
  0
176
  7
177
  7
178
  7
179
  3
271
  3
272
  3
273
  2
274
  2
275
  0
276
  0
277
  2
278
 46
279
  0
280
  0
281
  0
282
  0
283
  1
284
  0
285
  0
286
  0
288
  0
340
32
341
0
342
0
343
0
344
0
371
 -2
372
 -2
  0
ENDTAB
  0
TABLE
  2
BLOCK_RECORD
  5
1
100
AcDbSymbolTable
 70
  2
  0
BLOCK_RECORD
  5
A
100
AcDbSymbolTableRecord
100
AcDbBlockTableRecord
  2
*MODEL_SPACE
340
34
  0
BLOCK_RECORD
  5
B
100
AcDbSymbolTableRecord
100
AcDbBlockTableRecord
  2
*PAPER_SPACE
340
7B
  0
BLOCK_RECORD
  5
5B
100
AcDbSymbolTableRecord
100
AcDbBlockTableRecord
  2
*D0
340
0
  0
BLOCK_RECORD
  5
6B
100
AcDbSymbolTableRecord
100
AcDbBlockTableRecord
  2
*D1
340
0
  0
ENDTAB
  0
ENDSEC
  0
SECTION
  2
BLOCKS
  0
BLOCK
  5
D
100
AcDbEntity
  8
0
100
AcDbBlockBegin
  2
*MODEL_SPACE
 70
  0
 10
0.0
 20
0.0
 30
0.0
  3
*MODEL_SPACE
  1

  0
ENDBLK
  5
E
100
AcDbEntity
  8
0
100
AcDbBlockEnd
  0
BLOCK
  5
F
100
AcDbEntity
 67
  1
  8
0
100
AcDbBlockBegin
  2
*PAPER_SPACE
 70
  0
 10
0.0
 20
0.0
 30
0.0
  3
*PAPER_SPACE
  1

  0
ENDBLK
  5
10
100
AcDbEntity
 67
  1
  8
0
100
AcDbBlockEnd
  0
BLOCK
  5
5C
100
AcDbEntity
  8
0
100
AcDbBlockBegin
  2
*D0
 70
  1
 10
0.0
 20
0.0
 30
0.0
  3
*D0
  1

  0
LINE
  5
5D
100
AcDbEntity
  8
0
  6
Continuous
 62
  7
100
AcDbLine
 10
7.057
 20
3.687
 30
0.0
 11
7.057
 21
5.44
 31
0.0
1001
ACAD
1000
TCW40_DEV_WIDTH
1002
{
1040
-3.0
1002
}
  0
LINE
  5
5E
100
AcDbEntity
  8
0
  6
Continuous
 62
  7
100
AcDbLine
 10
3.871
 20
3.687
 30
0.0
 11
3.871
 21
5.44
 31
0.0
1001
ACAD
1000
TCW40_DEV_WIDTH
1002
{
1040
-3.0
1002
}
  0
LWPOLYLINE
  5
5F
100
AcDbEntity
  8
0
  6
Continuous
 62
  7
100
AcDbPolyline
 90
        4
 70
  0
 10
6.932
 20
5.315
 10
6.932
 20
5.315
 10
6.932
 20
5.315
 10
5.464
 20
5.315
  0
LWPOLYLINE
  5
60
100
AcDbEntity
  8
0
  6
Continuous
 62
  7
100
AcDbPolyline
 90
        4
 70
  0
 10
3.996
 20
5.315
 10
3.996
 20
5.315
 10
3.996
 20
5.315
 10
5.464
 20
5.315
  0
LWPOLYLINE
  5
63
100
AcDbEntity
  8
0
  6
Continuous
 62
  7
100
AcDbPolyline
 90
        4
 70
  0
 10
7.057
 20
5.315
 40
0.0
 41
0.0
 10
6.932
 20
5.331
 40
0.0
 41
0.0
 10
6.932
 20
5.299
 40
0.0
 41
0.0
 10
7.057
 20
5.315
 40
0.0
 41
0.0
  0
HATCH
  5
61
100
AcDbEntity
  8
0
  6
Continuous
 62
  7
100
AcDbHatch
 10
0.0
 20
0.0
 30
0.0
210
0.0
220
0.0
230
1.0
  2
SOLID
 70
  1
 71
  1
 91
        1
 92
        3
 72
  0
 73
  1
 93
        3
 10
7.0565615860750377
 20
5.3147501044613641
 10
6.9315615860750377
 20
5.3310001044613644
 10
6.9315615860750377
 20
5.2985001044613638
 97
        1
330
62
 75
  0
 76
  0
 98
        0
  0
LWPOLYLINE
  5
66
100
AcDbEntity
  8
0
  6
Continuous
 62
  7
100
AcDbPolyline
 90
        4
 70
  0
 10
3.871
 20
5.315
 40
0.0
 41
0.0
 10
3.996
 20
5.299
 40
0.0
 41
0.0
 10
3.996
 20
5.331
 40
0.0
 41
0.0
 10
3.871
 20
5.315
 40
0.0
 41
0.0
  0
HATCH
  5
64
100
AcDbEntity
  8
0
  6
Continuous
 62
  7
100
AcDbHatch
 10
0.0
 20
0.0
 30
0.0
210
0.0
220
0.0
230
1.0
  2
SOLID
 70
  1
 71
  1
 91
        1
 92
        3
 72
  0
 73
  1
 93
        3
 10
3.8711495536702922
 20
5.314750104461365
 10
3.9961495536702922
 20
5.2985001044613647
 10
3.9961495536702922
 20
5.3310001044613653
 97
        1
330
65
 75
  0
 76
  0
 98
        0
  0
TEXT
  5
67
100
AcDbEntity
  8
0
  6
Continuous
 62
  7
100
AcDbText
 10
5.174
 20
5.416
 30
0.0
 40
0.117
  1
3 3/16
  7
_TCW_TXTSTY_1
 72
  1
 11
5.396
 21
5.474
 31
0.0
100
AcDbText
 73
  2
  0
TEXT
  5
68
100
AcDbEntity
  8
0
  6
Continuous
 62
  7
100
AcDbText
 10
5.617
 20
5.416
 30
0.0
 40
0.117
  1
in
  7
_TCW_TXTSTY_1
 11
5.617
 21
5.533
 31
0.0
100
AcDbText
 73
  3
  0
ENDBLK
  5
69
100
AcDbEntity
  8
0
100
AcDbBlockEnd
  0
BLOCK
  5
6C
100
AcDbEntity
  8
0
100
AcDbBlockBegin
  2
*D1
 70
  1
 10
0.0
 20
0.0
 30
0.0
  3
*D1
  1

  0
LINE
  5
6D
100
AcDbEntity
  8
0
  6
Continuous
 62
  7
100
AcDbLine
 10
4.0
 20
4.623
 30
0.0
 11
2.799
 21
4.623
 31
0.0
1001
ACAD
1000
TCW40_DEV_WIDTH
1002
{
1040
-3.0
1002
}
  0
LINE
  5
6E
100
AcDbEntity
  8
0
  6
Continuous
 62
  7
100
AcDbLine
 10
3.984
 20
3.624
 30
0.0
 11
2.799
 21
3.624
 31
0.0
1001
ACAD
1000
TCW40_DEV_WIDTH
1002
{
1040
-3.0
1002
}
  0
LWPOLYLINE
  5
6F
100
AcDbEntity
  8
0
  6
Continuous
 62
  7
100
AcDbPolyline
 90
        4
 70
  0
 10
2.924
 20
4.498
 10
2.924
 20
4.498
 10
2.924
 20
4.498
 10
2.924
 20
4.24
  0
LWPOLYLINE
  5
70
100
AcDbEntity
  8
0
  6
Continuous
 62
  7
100
AcDbPolyline
 90
        4
 70
  0
 10
2.924
 20
3.749
 10
2.924
 20
3.749
 10
2.924
 20
3.749
 10
2.924
 20
4.007
  0
LWPOLYLINE
  5
73
100
AcDbEntity
  8
0
  6
Continuous
 62
  7
100
AcDbPolyline
 90
        4
 70
  0
 10
2.924
 20
4.623
 40
0.0
 41
0.0
 10
2.907
 20
4.498
 40
0.0
 41
0.0
 10
2.94
 20
4.498
 40
0.0
 41
0.0
 10
2.924
 20
4.623
 40
0.0
 41
0.0
  0
HATCH
  5
71
100
AcDbEntity
  8
0
  6
Continuous
 62
  7
100
AcDbHatch
 10
0.0
 20
0.0
 30
0.0
210
0.0
220
0.0
230
1.0
  2
SOLID
 70
  1
 71
  1
 91
        1
 92
        3
 72
  0
 73
  1
 93
        3
 10
2.9236746655411787
 20
4.6231794764627967
 10
2.9074246655411788
 20
4.4981794764627967
 10
2.9399246655411786
 20
4.4981794764627967
 97
        1
330
72
 75
  0
 76
  0
 98
        0
  0
LWPOLYLINE
  5
76
100
AcDbEntity
  8
0
  6
Continuous
 62
  7
100
AcDbPolyline
 90
        4
 70
  0
 10
2.924
 20
3.624
 40
0.0
 41
0.0
 10
2.94
 20
3.749
 40
0.0
 41
0.0
 10
2.907
 20
3.749
 40
0.0
 41
0.0
 10
2.924
 20
3.624
 40
0.0
 41
0.0
  0
HATCH
  5
74
100
AcDbEntity
  8
0
  6
Continuous
 62
  7
100
AcDbHatch
 10
0.0
 20
0.0
 30
0.0
210
0.0
220
0.0
230
1.0
  2
SOLID
 70
  1
 71
  1
 91
        1
 92
        3
 72
  0
 73
  1
 93
        3
 10
2.9236746655411787
 20
3.6242633928269847
 10
2.9399246655411786
 20
3.7492633928269847
 10
2.9074246655411788
 20
3.7492633928269847
 97
        1
330
75
 75
  0
 76
  0
 98
        0
  0
TEXT
  5
77
100
AcDbEntity
  8
0
  6
Continuous
 62
  7
100
AcDbText
 10
2.811
 20
4.065
 30
0.0
 40
0.117
  1
1
  7
_TCW_TXTSTY_1
 72
  1
 11
2.855
 21
4.124
 31
0.0
100
AcDbText
 73
  2
  0
TEXT
  5
78
100
AcDbEntity
  8
0
  6
Continuous
 62
  7
100
AcDbText
 10
2.899
 20
4.065
 30
0.0
 40
0.117
  1
in
  7
_TCW_TXTSTY_1
 11
2.899
 21
4.182
 31
0.0
100
AcDbText
 73
  3
  0
ENDBLK
  5
79
100
AcDbEntity
  8
0
100
AcDbBlockEnd
  0
ENDSEC
  0
SECTION
  2
ENTITIES
  0
VIEWPORT
  5
35
100
AcDbEntity
 67
  1
  8
0
100
AcDbViewport
 10
4.931
 20
3.799
 30
0.0
 40
4.265
 41
3.546
 68
  1
 69
  1
 12
4.931
 22
3.799
 13
0.0
 23
0.0
 14
0.5
 24
0.5
 15
0.5
 25
0.5
 16
0.0
 26
0.0
 36
1.0
 17
0.0
 27
0.0
 37
0.0
 42
50.0
 43
0.0
 44
0.0
 45
3.546
 50
0.0
 51
0.0
 72
100
 90
    32800
340
0
  1

281
  0
 71
  0
 74
  1
110
0.0
120
0.0
130
0.0
111
1.0
121
0.0
131
0.0
112
0.0
122
1.0
132
0.0
345
0
346
0
 79
  0
146
0.0
  0
LINE
  5
36
100
AcDbEntity
 67
  1
  8
0
370
 35
  6
Continuous
 62
 30
100
AcDbLine
 10
3.871
 20
4.53
 30
0.0
 11
3.871
 21
3.624
 31
0.0
1001
ACAD
1000
TCW40_DEV_WIDTH
1002
{
1040
0.014
1002
}
  0
LINE
  5
37
100
AcDbEntity
 67
  1
  8
0
370
 35
  6
Continuous
 62
 30
100
AcDbLine
 10
5.761
 20
3.624
 30
0.0
 11
7.057
 21
3.624
 31
0.0
1001
ACAD
1000
TCW40_DEV_WIDTH
1002
{
1040
0.014
1002
}
  0
LINE
  5
38
100
AcDbEntity
 67
  1
  8
0
370
 35
  6
Continuous
 62
 30
100
AcDbLine
 10
4.401
 20
3.692
 30
0.0
 11
5.629
 21
3.692
 31
0.0
1001
ACAD
1000
TCW40_DEV_WIDTH
1002
{
1040
0.014
1002
}
  0
LINE
  5
39
100
AcDbEntity
 67
  1
  8
0
370
 35
  6
Continuous
 62
 30
100
AcDbLine
 10
4.271
 20
3.624
 30
0.0
 11
4.401
 21
3.692
 31
0.0
1001
ACAD
1000
TCW40_DEV_WIDTH
1002
{
1040
0.014
1002
}
  0
LINE
  5
3A
100
AcDbEntity
 67
  1
  8
0
370
 35
  6
Continuous
 62
 30
100
AcDbLine
 10
5.629
 20
3.692
 30
0.0
 11
5.761
 21
3.624
 31
0.0
1001
ACAD
1000
TCW40_DEV_WIDTH
1002
{
1040
0.014
1002
}
  0
LINE
  5
3B
100
AcDbEntity
 67
  1
  8
0
370
 35
  6
Continuous
 62
 30
100
AcDbLine
 10
4.271
 20
3.624
 30
0.0
 11
3.871
 21
3.624
 31
0.0
1001
ACAD
1000
TCW40_DEV_WIDTH
1002
{
1040
0.014
1002
}
  0
ARC
  5
3C
100
AcDbEntity
 67
  1
  8
0
370
 35
  6
Continuous
 62
 30
100
AcDbCircle
 10
3.752
 20
4.313
 30
0.0
 40
0.76
100
AcDbArc
 50
-1.152
 51
13.415
1001
ACAD
1000
TCW40_DEV_WIDTH
1002
{
1040
0.014
1002
}
  0
ARC
  5
3D
100
AcDbEntity
 67
  1
  8
0
370
 35
  6
Continuous
 62
 30
100
AcDbCircle
 10
4.367
 20
4.466
 30
0.0
 40
0.126
100
AcDbArc
 50
10.817
 51
61.609
1001
ACAD
1000
TCW40_DEV_WIDTH
1002
{
1040
0.014
1002
}
  0
ARC
  5
3E
100
AcDbEntity
 67
  1
  8
0
370
 35
  6
Continuous
 62
 30
100
AcDbCircle
 10
4.275
 20
4.295
 30
0.0
 40
0.32
100
AcDbArc
 50
61.609
 51
66.509
1001
ACAD
1000
TCW40_DEV_WIDTH
1002
{
1040
0.014
1002
}
  0
ARC
  5
3F
100
AcDbEntity
 67
  1
  8
0
370
 35
  6
Continuous
 62
 30
100
AcDbCircle
 10
4.063
 20
2.099
 30
0.0
 40
2.524
100
AcDbArc
 50
84.442
 51
91.919
1001
ACAD
1000
TCW40_DEV_WIDTH
1002
{
1040
0.014
1002
}
  0
ARC
  5
40
100
AcDbEntity
 67
  1
  8
0
370
 35
  6
Continuous
 62
 30
100
AcDbCircle
 10
4.27
 20
4.237
 30
0.0
 40
0.377
100
AcDbArc
 50
78.113
 51
84.393
1001
ACAD
1000
TCW40_DEV_WIDTH
1002
{
1040
0.014
1002
}
  0
ARC
  5
41
100
AcDbEntity
 67
  1
  8
0
370
 35
  6
Continuous
 62
 30
100
AcDbCircle
 10
4.245
 20
4.178
 30
0.0
 40
0.44
100
AcDbArc
 50
69.005
 51
76.462
1001
ACAD
1000
TCW40_DEV_WIDTH
1002
{
1040
0.014
1002
}
  0
ARC
  5
42
100
AcDbEntity
 67
  1
  8
0
370
 35
  6
Continuous
 62
 30
100
AcDbCircle
 10
3.982
 20
4.502
 30
0.0
 40
0.12
100
AcDbArc
 50
91.919
 51
128.061
1001
ACAD
1000
TCW40_DEV_WIDTH
1002
{
1040
0.014
1002
}
  0
ARC
  5
43
100
AcDbEntity
 67
  1
  8
0
370
 35
  6
Continuous
 62
 30
100
AcDbCircle
 10
3.978
 20
4.514
 30
0.0
 40
0.108
100
AcDbArc
 50
130.316
 51
171.177
1001
ACAD
1000
TCW40_DEV_WIDTH
1002
{
1040
0.014
1002
}
  0
ARC
  5
44
100
AcDbEntity
 67
  1
  8
0
370
 35
  6
Continuous
 62
 30
100
AcDbCircle
 10
4.837
 20
4.11
 30
0.0
 40
0.376
100
AcDbArc
 50
87.004
 51
150.108
1001
ACAD
1000
TCW40_DEV_WIDTH
1002
{
1040
0.014
1002
}
  0
ARC
  5
45
100
AcDbEntity
 67
  1
  8
0
370
 35
  6
Continuous
 62
 30
100
AcDbCircle
 10
4.804
 20
3.779
 30
0.0
 40
0.709
100
AcDbArc
 50
56.509
 51
85.738
1001
ACAD
1000
TCW40_DEV_WIDTH
1002
{
1040
0.014
1002
}
  0
ARC
  5
46
100
AcDbEntity
 67
  1
  8
0
370
 35
  6
Continuous
 62
 30
100
AcDbCircle
 10
4.447
 20
3.068
 30
0.0
 40
1.502
100
AcDbArc
 50
53.13
 51
60.106
1001
ACAD
1000
TCW40_DEV_WIDTH
1002
{
1040
0.014
1002
}
  0
ARC
  5
47
100
AcDbEntity
 67
  1
  8
0
370
 35
  6
Continuous
 62
 30
100
AcDbCircle
 10
7.069
 20
6.564
 30
0.0
 40
2.868
100
AcDbArc
 50
-126.87
 51
-115.812
1001
ACAD
1000
TCW40_DEV_WIDTH
1002
{
1040
0.014
1002
}
  0
ARC
  5
48
100
AcDbEntity
 67
  1
  8
0
370
 35
  6
Continuous
 62
 30
100
AcDbCircle
 10
6.356
 20
5.09
 30
0.0
 40
1.231
100
AcDbArc
 50
-115.812
 51
-95.825
1001
ACAD
1000
TCW40_DEV_WIDTH
1002
{
1040
0.014
1002
}
  0
ARC
  5
49
100
AcDbEntity
 67
  1
  8
0
370
 35
  6
Continuous
 62
 30
100
AcDbCircle
 10
6.35
 20
3.821
 30
0.0
 40
0.127
100
AcDbArc
 50
138.22
 51
159.323
1001
ACAD
1000
TCW40_DEV_WIDTH
1002
{
1040
0.014
1002
}
  0
ARC
  5
4A
100
AcDbEntity
 67
  1
  8
0
370
 35
  6
Continuous
 62
 30
100
AcDbCircle
 10
6.344
 20
3.745
 30
0.0
 40
0.193
100
AcDbArc
 50
90.234
 51
101.364
1001
ACAD
1000
TCW40_DEV_WIDTH
1002
{
1040
0.014
1002
}
  0
ARC
  5
4B
100
AcDbEntity
 67
  1
  8
0
370
 35
  6
Continuous
 62
 30
100
AcDbCircle
 10
6.324
 20
3.844
 30
0.0
 40
0.093
100
AcDbArc
 50
101.364
 51
138.22
1001
ACAD
1000
TCW40_DEV_WIDTH
1002
{
1040
0.014
1002
}
  0
LINE
  5
4C
100
AcDbEntity
 67
  1
  8
0
370
 35
  6
Continuous
 62
 30
100
AcDbLine
 10
6.343
 20
3.938
 30
0.0
 11
6.361
 21
3.979
 31
0.0
1001
ACAD
1000
TCW40_DEV_WIDTH
1002
{
1040
0.014
1002
}
  0
ARC
  5
4D
100
AcDbEntity
 67
  1
  8
0
370
 35
  6
Continuous
 62
 30
100
AcDbCircle
 10
6.471
 20
3.875
 30
0.0
 40
0.159
100
AcDbArc
 50
56.993
 51
120.761
1001
ACAD
1000
TCW40_DEV_WIDTH
1002
{
1040
0.014
1002
}
  0
ARC
  5
4E
100
AcDbEntity
 67
  1
  8
0
370
 35
  6
Continuous
 62
 30
100
AcDbCircle
 10
6.425
 20
3.951
 30
0.0
 40
0.07
100
AcDbArc
 50
120.761
 51
156.834
1001
ACAD
1000
TCW40_DEV_WIDTH
1002
{
1040
0.014
1002
}
  0
ARC
  5
4F
100
AcDbEntity
 67
  1
  8
0
370
 35
  6
Continuous
 62
 30
100
AcDbCircle
 10
6.455
 20
3.879
 30
0.0
 40
0.165
100
AcDbArc
 50
25.041
 51
51.726
1001
ACAD
1000
TCW40_DEV_WIDTH
1002
{
1040
0.014
1002
}
  0
ARC
  5
50
100
AcDbEntity
 67
  1
  8
0
370
 35
  6
Continuous
 62
 30
100
AcDbCircle
 10
6.623
 20
3.641
 30
0.0
 40
0.308
100
AcDbArc
 50
85.268
 51
93.433
1001
ACAD
1000
TCW40_DEV_WIDTH
1002
{
1040
0.014
1002
}
  0
ARC
  5
51
100
AcDbEntity
 67
  1
  8
0
370
 35
  6
Continuous
 62
 30
100
AcDbCircle
 10
6.643
 20
3.876
 30
0.0
 40
0.072
100
AcDbArc
 50
67.977
 51
85.268
1001
ACAD
1000
TCW40_DEV_WIDTH
1002
{
1040
0.014
1002
}
  0
ARC
  5
52
100
AcDbEntity
 67
  1
  8
0
370
 35
  6
Continuous
 62
 30
100
AcDbCircle
 10
6.565
 20
3.799
 30
0.0
 40
0.182
100
AcDbArc
 50
27.169
 51
38.182
1001
ACAD
1000
TCW40_DEV_WIDTH
1002
{
1040
0.014
1002
}
  0
ARC
  5
53
100
AcDbEntity
 67
  1
  8
0
370
 35
  6
Continuous
 62
 30
100
AcDbCircle
 10
6.617
 20
3.84
 30
0.0
 40
0.116
100
AcDbArc
 50
38.182
 51
62.974
1001
ACAD
1000
TCW40_DEV_WIDTH
1002
{
1040
0.014
1002
}
  0
ARC
  5
54
100
AcDbEntity
 67
  1
  8
0
370
 35
  6
Continuous
 62
 30
100
AcDbCircle
 10
6.777
 20
3.265
 30
0.0
 40
0.62
100
AcDbArc
 50
83.824
 51
94.607
1001
ACAD
1000
TCW40_DEV_WIDTH
1002
{
1040
0.014
1002
}
  0
ARC
  5
55
100
AcDbEntity
 67
  1
  8
0
370
 35
  6
Continuous
 62
 30
100
AcDbCircle
 10
6.78
 20
3.628
 30
0.0
 40
0.26
100
AcDbArc
 50
41.566
 51
75.942
1001
ACAD
1000
TCW40_DEV_WIDTH
1002
{
1040
0.014
1002
}
  0
ARC
  5
56
100
AcDbEntity
 67
  1
  8
0
370
 35
  6
Continuous
 62
 30
100
AcDbCircle
 10
6.796
 20
3.611
 30
0.0
 40
0.261
100
AcDbArc
 50
2.944
 51
46.656
1001
ACAD
1000
TCW40_DEV_WIDTH
1002
{
1040
0.014
1002
}
  0
TEXT
  5
57
100
AcDbEntity
 67
  1
  8
0
  6
Continuous
 62
  7
100
AcDbText
 10
4.652
 20
2.494
 30
0.0
 40
0.133
  1
Casing  # 1107
  7
_TCW_TXTSTY_1
 11
4.652
 21
2.628
 31
0.0
100
AcDbText
 73
  3
1001
TCAD
1000
TCW40_TEXT
1002
{
1000
Times New Roman
1070
  0
1070
257
1002
}
  0
TEXT
  5
58
100
AcDbEntity
 67
  1
  8
0
  6
Continuous
 62
  7
100
AcDbText
 10
4.652
 20
2.314
 30
0.0
 40
0.1
  1
1 x 3-3/16
  7
_TCW_TXTSTY_1
 11
4.652
 21
2.414
 31
0.0
100
AcDbText
 73
  3
1001
TCAD
1000
TCW_REFPOINT
1002
{
1010
4.652
1020
2.447
1030
0.0
1002
}
1001
TCAD
1000
TCW40_TEXT
1002
{
1000
Times New Roman
1070
  0
1070
257
1002
}
  0
MTEXT
  5
5A
100
AcDbEntity
 67
  1
  8
0
  6
Continuous
 62
  7
100
AcDbMText
 10
4.652
 20
2.288
 30
0.0
 40
0.087
 41
1.35
 71
  1
 72
  1
  1
{Saroyan Lumber Co.\P(800) 624-9309}
  7
_TCW_TXTSTY_2
 73
  1
 44
1.0
1001
TCAD
1000
TCW_REFPOINT
1002
{
1010
4.652
1020
2.178
1030
0.0
1002
}
1001
TCAD
1000
TCW40_TEXT
1002
{
1000
Times New Roman
1070
  0
1070
257
1002
}
  0
DIMENSION
  5
6A
100
AcDbEntity
 67
  1
  8
0
  6
Continuous
 62
  7
100
AcDbDimension
  2
*D0
 10
3.871
 20
5.315
 30
0.0
 11
5.464
 21
5.474
 31
0.0
 71
  5
 72
  1
 41
1.0
 42
0.0
  3
STANDARD
100
AcDbAlignedDimension
 13
7.057
 23
3.624
 33
0.0
 14
3.871
 24
3.624
 34
0.0
100
AcDbRotatedDimension
1001
ACAD
1000
DSTYLE
1002
{
1070
 41
1040
0.125
1070
179
1070
  4
1070
271
1070
  4
1070
272
1070
  4
1070
174
1070
  1
1070
140
1040
0.117
1070
270
1070
  5
1002
}
  0
DIMENSION
  5
7A
100
AcDbEntity
 67
  1
  8
0
  6
Continuous
 62
  7
100
AcDbDimension
  2
*D1
 10
2.924
 20
3.624
 30
0.0
 11
2.924
 21
4.124
 31
0.0
 71
  5
 72
  1
 41
1.0
 42
0.0
  3
STANDARD
100
AcDbAlignedDimension
 13
4.063
 23
4.623
 33
0.0
 14
4.046
 24
3.624
 34
0.0
 50
-90.0
100
AcDbRotatedDimension
1001
ACAD
1000
DSTYLE
1002
{
1070
 41
1040
0.125
1070
179
1070
  4
1070
271
1070
  4
1070
272
1070
  4
1070
174
1070
  1
1070
140
1040
0.117
1070
270
1070
  5
1002
}
  0
LINE
  5
33
100
AcDbEntity
  8
0
370
  0
  6
Continuous
 62
 30
100
AcDbLine
 10
1.243
 20
-89.893
 30
0.0
 11
9.13
 21
-89.893
 31
0.0
  0
ENDSEC
  0
SECTION
  2
OBJECTS
  0
DICTIONARY
  5
19
100
AcDbDictionary
280
  0
281
  1
  3
ACAD_GROUP
350
1A
  3
ACAD_MLINESTYLE
350
1B
  3
ACAD_LAYOUT
350
1E
  3
ACAD_PLOTSETTINGS
350
22
  3
ACAD_PLOTSTYLENAME
350
1F
  0
DICTIONARY
  5
1A
102
{ACAD_REACTORS
330
19
102
}
100
AcDbDictionary
280
  0
281
  1
  0
DICTIONARY
  5
1B
102
{ACAD_REACTORS
330
19
102
}
100
AcDbDictionary
280
  0
281
  1
  3
Standard
350
1C
  0
MLINESTYLE
  5
1C
100
AcDbMlineStyle
  2
STANDARD
 70
  0
  3

 62
256
 51
90.0
 52
90.0
 71
  3
 49
0.25
 62
  7
  6
ByLayer
 49
0.0
 62
  7
  6
ByLayer
 49
-0.25
 62
  7
  6
ByLayer
  0
ACDBDICTIONARYWDFLT
  5
1F
102
{ACAD_REACTORS
330
19
102
}
100
AcDbDictionary
281
  1
  3
Normal
350
1D
100
AcDbDictionaryWithDefault
340
1D
  0
ACDBPLACEHOLDER
  5
1D
102
{ACAD_REACTORS
330
1F
102
}
  0
LAYOUT
  5
21
102
{ACAD_REACTORS
330
1E
102
}
100
AcDbPlotSettings
  1

  2

  4

  6

 40
0.0
 41
0.0
 42
0.0
 43
0.0
 44
0.0
 45
0.0
 46
0.0
 47
0.0
 48
0.0
 49
0.0
140
0.0
141
0.0
142
1.0
143
1.0
 70
  0
 72
  0
 73
  0
 74
  0
  7

 75
  0
147
1.0
148
0.0
149
0.0
100
AcDbLayout
  1
Layout1
 70
  0
 71
  0
 10
0.0
 20
0.0
 11
0.0
 21
0.0
 12
0.0
 22
0.0
 32
0.0
 14
0.0
 24
0.0
 34
0.0
 15
0.0
 25
0.0
 35
0.0
146
0.0
 13
0.0
 23
0.0
 33
0.0
 16
0.0
 26
0.0
 36
0.0
 17
0.0
 27
0.0
 37
0.0
 76
  0
330
B
331
0
345
0
346
0
  0
DICTIONARY
  5
1E
102
{ACAD_REACTORS
330
19
102
}
100
AcDbDictionary
280
  0
281
  1
  3
Model
350
34
  3
Paper 1
350
7B
  0
DICTIONARY
  5
22
102
{ACAD_REACTORS
330
19
102
}
100
AcDbDictionary
280
  0
281
  1
  0
LAYOUT
  5
34
100
AcDbPlotSettings
  1

  2

  4

  6

 40
0.0
 41
0.0
 42
0.0
 43
0.0
 44
0.0
 45
0.0
 46
0.0
 47
0.0
 48
0.0
 49
0.0
140
0.0
141
0.0
142
1.0
143
1.0
 70
  0
 72
  0
 73
  0
 74
  0
  7

 75
  0
147
1.0
148
0.0
149
0.0
100
AcDbLayout
  1
Model
 70
  0
 71
  0
 10
0.0
 20
0.0
 11
0.0
 21
0.0
 12
0.0
 22
0.0
 32
0.0
 14
0.0
 24
0.0
 34
0.0
 15
0.0
 25
0.0
 35
0.0
146
0.0
 13
0.0
 23
0.0
 33
0.0
 16
0.0
 26
0.0
 36
0.0
 17
0.0
 27
0.0
 37
0.0
 76
  0
330
A
331
0
345
0
346
0
  0
LAYOUT
  5
7B
100
AcDbPlotSettings
  1

  2

  4

  6

 40
0.0
 41
0.0
 42
0.0
 43
0.0
 44
215.9
 45
279.4
 46
-31.75
 47
31.75
 48
0.0
 49
0.0
140
0.0
141
0.0
142
1.0
143
1.0
 70
  0
 72
  0
 73
  0
 74
  0
  7

 75
  0
147
1.0
148
0.0
149
0.0
100
AcDbLayout
  1
Paper 1
 70
  1
 71
  1
 10
31.75
 20
-31.75
 11
247.65
 21
247.65
 12
0.0
 22
0.0
 32
0.0
 14
0.0
 24
0.0
 34
0.0
 15
0.0
 25
0.0
 35
0.0
146
0.0
 13
0.0
 23
0.0
 33
0.0
 16
0.0
 26
0.0
 36
0.0
 17
0.0
 27
0.0
 37
0.0
 76
  0
330
B
331
35
345
0
346
0
  0
ENDSEC
  0
EOF
