  0
SECTION
  2
HEADER
  9
$ACADVER
  1
AC1015
  9
$ACADMAINTVER
 70
     6
  9
$DWGCODEPAGE
  3
ANSI_1252
  9
$INSBASE
 10
0.0
 20
0.0
 30
0.0
  9
$EXTMIN
 10
1.000000E+20
 20
1.000000E+20
 30
1.000000E+20
  9
$EXTMAX
 10
-1.000000E+20
 20
-1.000000E+20
 30
-1.000000E+20
  9
$LIMMIN
 10
1.108313
 20
-6.619597
  9
$LIMMAX
 10
15.108313
 20
5.380403
  9
$ORTHOMODE
 70
     0
  9
$REGENMODE
 70
     1
  9
$FILLMODE
 70
     1
  9
$QTEXTMODE
 70
     0
  9
$MIRRTEXT
 70
     1
  9
$LTSCALE
 40
1.0
  9
$ATTMODE
 70
     1
  9
$TEXTSIZE
 40
0.5
  9
$TRACEWID
 40
1.0
  9
$TEXTSTYLE
  7
STANDARD
  9
$CLAYER
  8
0
  9
$CELTYPE
  6
Continuous
  9
$CECOLOR
 62
     7
  9
$CELTSCALE
 40
1.0
  9
$DISPSILH
 70
     0
  9
$DIMSCALE
 40
1.0
  9
$DIMASZ
 40
0.125
  9
$DIMEXO
 40
0.0625
  9
$DIMDLI
 40
0.375
  9
$DIMRND
 40
0.0001
  9
$DIMDLE
 40
0.0
  9
$DIMEXE
 40
0.125
  9
$DIMTP
 40
0.0
  9
$DIMTM
 40
0.0
  9
$DIMTXT
 40
0.116667
  9
$DIMCEN
 40
0.09
  9
$DIMTSZ
 40
0.0
  9
$DIMTOL
 70
     0
  9
$DIMLIM
 70
     0
  9
$DIMTIH
 70
     1
  9
$DIMTOH
 70
     1
  9
$DIMSE1
 70
     0
  9
$DIMSE2
 70
     0
  9
$DIMTAD
 70
     1
  9
$DIMZIN
 70
     0
  9
$DIMBLK
  1

  9
$DIMASO
 70
     0
  9
$DIMSHO
 70
     1
  9
$DIMPOST
  1
<>in
  9
$DIMAPOST
  1
<>
  9
$DIMALT
 70
     0
  9
$DIMALTD
 70
     2
  9
$DIMALTF
 40
1.0
  9
$DIMLFAC
 40
1.0
  9
$DIMTOFL
 70
     1
  9
$DIMTVP
 40
0.0
  9
$DIMTIX
 70
     1
  9
$DIMSOXD
 70
     0
  9
$DIMSAH
 70
     0
  9
$DIMBLK1
  1

  9
$DIMBLK2
  1

  9
$DIMSTYLE
  2
STANDARD
  9
$DIMCLRD
 70
     7
  9
$DIMCLRE
 70
     7
  9
$DIMCLRT
 70
     7
  9
$DIMTFAC
 40
1.0
  9
$DIMGAP
 40
0.0625
  9
$DIMJUST
 70
     0
  9
$DIMSD1
 70
     0
  9
$DIMSD2
 70
     0
  9
$DIMTOLJ
 70
     1
  9
$DIMTZIN
 70
     0
  9
$DIMALTZ
 70
     0
  9
$DIMALTTZ
 70
     0
  9
$DIMUPT
 70
     0
  9
$DIMDEC
 70
     4
  9
$DIMTDEC
 70
     4
  9
$DIMALTU
 70
     2
  9
$DIMALTTD
 70
     2
  9
$DIMTXSTY
  7
STANDARD
  9
$DIMAUNIT
 70
     0
  9
$DIMADEC
 70
     4
  9
$DIMALTRND
 40
0.0
  9
$DIMAZIN
 70
     0
  9
$DIMDSEP
 70
     0
  9
$DIMATFIT
 70
     0
  9
$DIMFRAC
 70
     0
  9
$DIMLDRBLK
  1

  9
$DIMLUNIT
 70
     5
  9
$DIMLWD
 70
     0
  9
$DIMLWE
 70
     0
  9
$DIMTMOVE
 70
     0
  9
$LUNITS
 70
     2
  9
$LUPREC
 70
     2
  9
$SKETCHINC
 40
1.0
  9
$FILLETRAD
 40
1.0
  9
$AUNITS
 70
     0
  9
$AUPREC
 70
     2
  9
$MENU
  1
acad
  9
$ELEVATION
 40
0.0
  9
$PELEVATION
 40
0.0
  9
$THICKNESS
 40
0.0
  9
$LIMCHECK
 70
     0
  9
$CHAMFERA
 40
0.0
  9
$CHAMFERB
 40
0.0
  9
$CHAMFERC
 40
0.0
  9
$CHAMFERD
 40
0.0
  9
$SKPOLY
 70
     0
  9
$TDCREATE
 40
0.000000000
  9
$TDUCREATE
 40
0.000000000
  9
$TDUPDATE
 40
0.000000000
  9
$TDUUPDATE
 40
0.000000000
  9
$TDINDWG
 40
0.0000000000
  9
$TDUSRTIMER
 40
0.0000000000
  9
$USRTIMER
 70
     1
  9
$ANGBASE
 50
0.0
  9
$ANGDIR
 70
     0
  9
$PDMODE
 70
     0
  9
$PDSIZE
 40
0.0
  9
$PLINEWID
 40
0.0
  9
$SPLFRAME
 70
     0
  9
$SPLINETYPE
 70
     5
  9
$SPLINESEGS
 70
    20
  9
$HANDSEED
  5
74
  9
$SURFTAB1
 70
     6
  9
$SURFTAB2
 70
     6
  9
$SURFTYPE
 70
     6
  9
$SURFU
 70
     6
  9
$SURFV
 70
     6
  9
$UCSBASE
  2

  9
$UCSNAME
  2

  9
$UCSORG
 10
0.0
 20
0.0
 30
0.0
  9
$UCSXDIR
 10
1.0
 20
0.0
 30
0.0
  9
$UCSYDIR
 10
0.0
 20
1.0
 30
0.0
  9
$UCSORTHOREF
  2

  9
$UCSORTHOVIEW
 70
     0
  9
$UCSORGTOP
 10
0.0
 20
0.0
 30
0.0
  9
$UCSORGBOTTOM
 10
0.0
 20
0.0
 30
0.0
  9
$UCSORGLEFT
 10
0.0
 20
0.0
 30
0.0
  9
$UCSORGRIGHT
 10
0.0
 20
0.0
 30
0.0
  9
$UCSORGFRONT
 10
0.0
 20
0.0
 30
0.0
  9
$UCSORGBACK
 10
0.0
 20
0.0
 30
0.0
  9
$PUCSBASE
  2

  9
$PUCSNAME
  2

  9
$PUCSORG
 10
0.0
 20
0.0
 30
0.0
  9
$PUCSXDIR
 10
1.0
 20
0.0
 30
0.0
  9
$PUCSYDIR
 10
0.0
 20
1.0
 30
0.0
  9
$PUCSORTHOREF
  2

  9
$PUCSORTHOVIEW
 70
     0
  9
$PUCSORGTOP
 10
0.0
 20
0.0
 30
0.0
  9
$PUCSORGBOTTOM
 10
0.0
 20
0.0
 30
0.0
  9
$PUCSORGLEFT
 10
0.0
 20
0.0
 30
0.0
  9
$PUCSORGRIGHT
 10
0.0
 20
0.0
 30
0.0
  9
$PUCSORGFRONT
 10
0.0
 20
0.0
 30
0.0
  9
$PUCSORGBACK
 10
0.0
 20
0.0
 30
0.0
  9
$USERI1
 70
     0
  9
$USERI2
 70
     0
  9
$USERI3
 70
     0
  9
$USERI4
 70
     0
  9
$USERI5
 70
     0
  9
$USERR1
 40
0.0
  9
$USERR2
 40
0.0
  9
$USERR3
 40
0.0
  9
$USERR4
 40
0.0
  9
$USERR5
 40
0.0
  9
$WORLDVIEW
 70
     1
  9
$SHADEDGE
 70
     3
  9
$SHADEDIF
 70
    70
  9
$TILEMODE
 70
     0
  9
$MAXACTVP
 70
    16
  9
$PINSBASE
 10
0.0
 20
0.0
 30
0.0
  9
$PLIMCHECK
 70
     0
  9
$PEXTMIN
 10
1.25
 20
-1.25
 30
0.0
  9
$PEXTMAX
 10
9.75
 20
9.75
 30
0.0
  9
$PLIMMIN
 10
1.25
 20
-1.25
  9
$PLIMMAX
 10
9.75
 20
9.75
  9
$UNITMODE
 70
     0
  9
$VISRETAIN
 70
     0
  9
$PLINEGEN
 70
     1
  9
$PSLTSCALE
 70
     1
  9
$TREEDEPTH
 70
  3020
  9
$CMLSTYLE
  2
STANDARD
  9
$CMLJUST
 70
     0
  9
$CMLSCALE
 40
1.0
  9
$PROXYGRAPHICS
 70
     0
  9
$MEASUREMENT
 70
     0
  9
$CELWEIGHT
370
     0
  9
$ENDCAPS
280
     0
  9
$JOINSTYLE
280
     0
  9
$LWDISPLAY
290
     0
  9
$INSUNITS
 70
     0
  9
$HYPERLINKBASE
  1

  9
$STYLESHEET
  1

  9
$XEDIT
290
     1
  9
$CEPSNTYPE
380
     0
  9
$PSTYLEMODE
290
     1
  9
$FINGERPRINTGUID
  2

  9
$VERSIONGUID
  2

  9
$EXTNAMES
290
     1
  9
$PSVPSCALE
 40
0.0
  0
ENDSEC
  0
SECTION
  2
CLASSES
  0
CLASS
  1
LWPOLYLINE
  2
AcDbPolyline
  3
AutoCAD 2000
 90
        0
280
     0
281
     1
  0
CLASS
  1
IMAGE
  2
AcDbRasterImage
  3
ISM
 90
    32895
280
     0
281
     1
  0
CLASS
  1
OLE2FRAME
  2
AcDbOle2Frame
  3
AutoCAD 2000
 90
    32768
280
     0
281
     1
  0
CLASS
  1
HATCH
  2
AcDbHatch
  3
AutoCAD 2000
 90
        0
280
     0
281
     1
  0
CLASS
  1
DICTIONARYVAR
  2
AcDbDictionaryVar
  3
AutoCAD 2000
 90
    32768
280
     0
281
     0
  0
CLASS
  1
RASTERVARIABLES
  2
AcDbRasterVariables
  3
ISM
 90
    32768
280
     0
281
     0
  0
CLASS
  1
IMAGEDEF
  2
AcDbRasterImageDef
  3
ISM
 90
    32768
280
     0
281
     0
  0
CLASS
  1
IMAGEDEF_REACTOR
  2
AcDbRasterImageDefReactor
  3
ISM
 90
    32769
280
     0
281
     0
  0
CLASS
  1
IDBUFFER
  2
AcDbIdBuffer
  3
AutoCAD 2000
 90
    32768
280
     0
281
     0
  0
CLASS
  1
SPATIAL_FILTER
  2
AcDbSpatialFilter
  3
AutoCAD 2000
 90
    32768
280
     0
281
     0
  0
CLASS
  1
XRECORD
  2
AcDbXrecord
  3
AutoCAD 2000
 90
    32768
280
     0
281
     0
  0
CLASS
  1
SORTENTSTABLE
  2
AcDbSortentsTable
  3
AutoCAD 2000
 90
    32768
280
     0
281
     0
  0
CLASS
  1
LAYER_INDEX
  2
AcDbLayerIndex
  3
AutoCAD 2000
 90
    32768
280
     0
281
     0
  0
CLASS
  1
SPATIAL_INDEX
  2
AcDbSpatialIndex
  3
AutoCAD 2000
 90
    32768
280
     0
281
     0
  0
CLASS
  1
OBJECT_PTR
  2
CAseDLPNTableRecord
  3
"ASE-LPNTableRecord"
 90
    32769
280
     0
281
     0
  0
CLASS
  1
LAYOUT
  2
AcDbLayout
  3
AutoCAD 2000
 90
        0
280
     0
281
     0
  0
CLASS
  1
PLOTSETTINGS
  2
AcDbPlotSettings
  3
AutoCAD 2000
 90
    32768
280
     0
281
     0
  0
CLASS
  1
ACDBDICTIONARYWDFLT
  2
AcDbDictionaryWithDefault
  3
AutoCAD 2000
 90
        0
280
     0
281
     0
  0
CLASS
  1
ACDBPLACEHOLDER
  2
AcDbPlaceHolder
  3
AutoCAD 2000
 90
        0
280
     0
281
     0
  0
ENDSEC
  0
SECTION
  2
TABLES
  0
TABLE
  2
VPORT
  5
7
100
AcDbSymbolTable
 70
     1
  0
VPORT
  5
15
100
AcDbSymbolTableRecord
100
AcDbViewportTableRecord
  2
*ACTIVE
 70
     0
 10
0.0
 20
0.0
 11
1.0
 21
1.0
 12
6.836141
 22
2.658741
 13
4.54919
 23
4.707066
 14
0.5
 24
0.5
 15
0.5
 25
0.5
 16
0.0
 26
0.0
 36
1.0
 17
0.0
 27
0.0
 37
0.0
 40
3.816584
 41
3.672619
 42
50.0
 43
0.0
 44
0.0
 50
0.0
 51
0.0
 71
     0
 72
   100
 73
     1
 74
     1
 75
     0
 76
     0
 77
     0
 78
     0
281
     0
 65
     0
110
0.0
120
0.0
130
0.0
111
1.0
121
0.0
131
0.0
112
0.0
122
1.0
132
0.0
345
0
346
0
 79
     0
146
0.0
  0
ENDTAB
  0
TABLE
  2
LTYPE
  5
4
100
AcDbSymbolTable
 70
    15
  0
LTYPE
  5
11
100
AcDbSymbolTableRecord
100
AcDbLinetypeTableRecord
  2
ByBlock
 70
    64
  3

 72
    65
 73
     0
 40
0.0
  0
LTYPE
  5
12
100
AcDbSymbolTableRecord
100
AcDbLinetypeTableRecord
  2
ByLayer
 70
    64
  3

 72
    65
 73
     0
 40
0.0
  0
LTYPE
  5
13
100
AcDbSymbolTableRecord
100
AcDbLinetypeTableRecord
  2
Continuous
 70
    64
  3
Solid line
 72
    65
 73
     0
 40
0.0
  0
LTYPE
  5
24
100
AcDbSymbolTableRecord
100
AcDbLinetypeTableRecord
  2
BORDER
 70
     0
  3
BORDER
 72
    65
 73
     6
 40
1.75
 49
0.5
 74
     0
 49
-0.25
 74
     0
 49
0.5
 74
     0
 49
-0.25
 74
     0
 49
0.0
 74
     0
 49
-0.25
 74
     0
  0
LTYPE
  5
25
100
AcDbSymbolTableRecord
100
AcDbLinetypeTableRecord
  2
CENTER
 70
     0
  3
CENTER
 72
    65
 73
     4
 40
2.0
 49
1.25
 74
     0
 49
-0.25
 74
     0
 49
0.25
 74
     0
 49
-0.25
 74
     0
  0
LTYPE
  5
26
100
AcDbSymbolTableRecord
100
AcDbLinetypeTableRecord
  2
DASHDOT
 70
     0
  3
DASHDOT
 72
    65
 73
     4
 40
1.0
 49
0.5
 74
     0
 49
-0.25
 74
     0
 49
0.0
 74
     0
 49
-0.25
 74
     0
  0
LTYPE
  5
27
100
AcDbSymbolTableRecord
100
AcDbLinetypeTableRecord
  2
DASHED
 70
     0
  3
DASHED
 72
    65
 73
     2
 40
0.75
 49
0.5
 74
     0
 49
-0.25
 74
     0
  0
LTYPE
  5
28
100
AcDbSymbolTableRecord
100
AcDbLinetypeTableRecord
  2
DIVIDE
 70
     0
  3
DIVIDE
 72
    65
 73
     6
 40
1.25
 49
0.5
 74
     0
 49
-0.25
 74
     0
 49
0.0
 74
     0
 49
-0.25
 74
     0
 49
0.0
 74
     0
 49
-0.25
 74
     0
  0
LTYPE
  5
29
100
AcDbSymbolTableRecord
100
AcDbLinetypeTableRecord
  2
DOT
 70
     0
  3
DOT
 72
    65
 73
     2
 40
0.25
 49
0.0
 74
     0
 49
-0.25
 74
     0
  0
LTYPE
  5
2A
100
AcDbSymbolTableRecord
100
AcDbLinetypeTableRecord
  2
HIDDEN
 70
     0
  3
HIDDEN
 72
    65
 73
     2
 40
0.375
 49
0.25
 74
     0
 49
-0.125
 74
     0
  0
LTYPE
  5
2B
100
AcDbSymbolTableRecord
100
AcDbLinetypeTableRecord
  2
PHANTOM
 70
     0
  3
PHANTOM
 72
    65
 73
     6
 40
2.5
 49
1.25
 74
     0
 49
-0.25
 74
     0
 49
0.25
 74
     0
 49
-0.25
 74
     0
 49
0.25
 74
     0
 49
-0.25
 74
     0
  0
LTYPE
  5
2C
100
AcDbSymbolTableRecord
100
AcDbLinetypeTableRecord
  2
$INVISIBLE
 70
     0
  3
$INVISIBLE
 72
    65
 73
     2
 40
200.0
 49
-100.0
 74
     0
 49
-100.0
 74
     0
  0
LTYPE
  5
2D
100
AcDbSymbolTableRecord
100
AcDbLinetypeTableRecord
  2
$SNAPEXT
 70
     0
  3
$SNAPEXT
 72
    65
 73
     2
 40
0.04
 49
0.02
 74
     0
 49
-0.02
 74
     0
  0
LTYPE
  5
2E
100
AcDbSymbolTableRecord
100
AcDbLinetypeTableRecord
  2
$CONSTRUCTION
 70
     0
  3
$CONSTRUCTION
 72
    65
 73
     4
 40
0.3
 49
0.2
 74
     0
 49
-0.05
 74
     0
 49
0.0
 74
     0
 49
-0.05
 74
     0
  0
LTYPE
  5
2F
100
AcDbSymbolTableRecord
100
AcDbLinetypeTableRecord
  2
$AUXILIARY
 70
     0
  3
$AUXILIARY
 72
    65
 73
     2
 40
0.1
 49
0.05
 74
     0
 49
-0.05
 74
     0
  0
ENDTAB
  0
TABLE
  2
LAYER
  5
2
100
AcDbSymbolTable
 70
     2
  0
LAYER
  5
14
100
AcDbSymbolTableRecord
100
AcDbLayerTableRecord
  2
0
 70
     0
 62
     7
  6
Continuous
290
     1
370
     0
390
0
1001
TCAD
1000
TCW_LAYER_ORDER
1002
{
1071
        0
1002
}
  0
LAYER
  5
30
100
AcDbSymbolTableRecord
100
AcDbLayerTableRecord
  2
$CONSTRUCTION
 70
     0
 62
     9
  6
$CONSTRUCTION
290
     1
370
     0
390
0
1001
TCAD
1000
TCW_LAYER_ORDER
1002
{
1071
        0
1002
}
  0
ENDTAB
  0
TABLE
  2
STYLE
  5
3
100
AcDbSymbolTable
 70
     3
  0
STYLE
  5
17
100
AcDbSymbolTableRecord
100
AcDbTextStyleTableRecord
  2
STANDARD
 70
     0
 40
0.0
 41
1.0
 50
0.0
 71
     0
 42
0.15
  3

  4

1001
ACAD
1000
Arial
1071
       34
  0
STYLE
  5
32
100
AcDbSymbolTableRecord
100
AcDbTextStyleTableRecord
  2
_TCW_TXTSTY_1
 70
     0
 40
0.0
 41
1.0
 50
0.0
 71
     0
 42
0.6
  3
TIMES.TTF
  4

1001
ACAD
1000
Times New Roman
1071
      290
  0
STYLE
  5
36
100
AcDbSymbolTableRecord
100
AcDbTextStyleTableRecord
  2
_TCW_TXTSTY_2
 70
     0
 40
0.0
 41
1.22
 50
0.0
 71
     0
 42
0.0875
  3
TIMES.TTF
  4

1001
ACAD
1000
Times New Roman
1071
      290
  0
ENDTAB
  0
TABLE
  2
VIEW
  5
5
100
AcDbSymbolTable
 70
     1
  0
VIEW
  5
31
100
AcDbSymbolTableRecord
100
AcDbViewTableRecord
  2
View_0
 70
     0
 40
8.267717
 10
5.846457
 20
4.133858
 41
11.692913
 11
0.0
 21
0.0
 31
1.0
 12
0.0
 22
0.0
 32
1.0
 42
50.0
 43
0.0
 44
0.0
 50
0.0
 71
     0
281
     0
 72
     0
110
0.0
120
0.0
130
0.0
111
1.0
121
0.0
131
0.0
112
0.0
122
1.0
132
0.0
  0
ENDTAB
  0
TABLE
  2
UCS
  5
6
100
AcDbSymbolTable
 70
     0
  0
ENDTAB
  0
TABLE
  2
APPID
  5
8
100
AcDbSymbolTable
 70
     2
  0
APPID
  5
16
100
AcDbSymbolTableRecord
100
AcDbRegAppTableRecord
  2
ACAD
 70
     0
  0
APPID
  5
23
100
AcDbSymbolTableRecord
100
AcDbRegAppTableRecord
  2
TCAD
 70
     0
  0
ENDTAB
  0
TABLE
  2
DIMSTYLE
  5
9
100
AcDbSymbolTable
 70
     1
100
AcDbDimStyleTable
 71
     0
  0
DIMSTYLE
105
18
100
AcDbSymbolTableRecord
100
AcDbDimStyleTableRecord
  2
STANDARD
 70
     0
  3
<>in
  4
<>
 40
1.0
 41
0.125
 42
0.0625
 43
0.375
 44
0.125
 45
0.0001
 46
0.0
 47
0.0
 48
0.0
 71
     0
 72
     0
 73
     1
 74
     1
 75
     0
 76
     0
 77
     1
 78
     0
 79
     0
140
0.116667
141
0.09
142
0.0
143
1.0
144
1.0
145
0.0
146
1.0
147
0.0625
148
0.01
170
     0
171
     2
172
     1
173
     0
174
     1
175
     0
176
     7
177
     7
178
     7
179
     4
271
     4
272
     4
273
     2
274
     2
275
     0
276
     0
277
     5
278
    46
279
     0
280
     0
281
     0
282
     0
283
     1
284
     0
285
     0
286
     0
288
     0
340
32
341
0
342
0
343
0
344
0
371
    -2
372
    -2
  0
ENDTAB
  0
TABLE
  2
BLOCK_RECORD
  5
1
100
AcDbSymbolTable
 70
     2
  0
BLOCK_RECORD
  5
A
100
AcDbSymbolTableRecord
100
AcDbBlockTableRecord
  2
*MODEL_SPACE
340
33
  0
BLOCK_RECORD
  5
B
100
AcDbSymbolTableRecord
100
AcDbBlockTableRecord
  2
*PAPER_SPACE
340
73
  0
BLOCK_RECORD
  5
53
100
AcDbSymbolTableRecord
100
AcDbBlockTableRecord
  2
*D0
340
0
  0
BLOCK_RECORD
  5
63
100
AcDbSymbolTableRecord
100
AcDbBlockTableRecord
  2
*D1
340
0
  0
ENDTAB
  0
ENDSEC
  0
SECTION
  2
BLOCKS
  0
BLOCK
  5
D
100
AcDbEntity
  8
0
100
AcDbBlockBegin
  2
*MODEL_SPACE
 70
     0
 10
0.0
 20
0.0
 30
0.0
  3
*MODEL_SPACE
  1

  0
ENDBLK
  5
E
100
AcDbEntity
  8
0
100
AcDbBlockEnd
  0
BLOCK
  5
F
100
AcDbEntity
 67
     1
  8
0
100
AcDbBlockBegin
  2
*PAPER_SPACE
 70
     0
 10
0.0
 20
0.0
 30
0.0
  3
*PAPER_SPACE
  1

  0
ENDBLK
  5
10
100
AcDbEntity
 67
     1
  8
0
100
AcDbBlockEnd
  0
BLOCK
  5
54
100
AcDbEntity
  8
0
100
AcDbBlockBegin
  2
*D0
 70
     1
 10
0.0
 20
0.0
 30
0.0
  3
*D0
  1

  0
LINE
  5
55
100
AcDbEntity
  8
0
370
     0
  6
Continuous
 62
     7
100
AcDbLine
 10
3.645705
 20
3.619657
 30
0.0
 11
3.645705
 21
4.10705
 31
0.0
  0
LINE
  5
56
100
AcDbEntity
  8
0
370
     0
  6
Continuous
 62
     7
100
AcDbLine
 10
6.914243
 20
3.25255
 30
0.0
 11
6.914243
 21
4.10705
 31
0.0
  0
LWPOLYLINE
  5
57
100
AcDbEntity
  8
0
  6
Continuous
 62
     7
100
AcDbPolyline
 90
        4
 70
     0
 10
3.770705
 20
3.98205
 10
3.770705
 20
3.98205
 10
3.770705
 20
3.98205
 10
5.279974
 20
3.98205
  0
LWPOLYLINE
  5
58
100
AcDbEntity
  8
0
  6
Continuous
 62
     7
100
AcDbPolyline
 90
        4
 70
     0
 10
6.789243
 20
3.98205
 10
6.789243
 20
3.98205
 10
6.789243
 20
3.98205
 10
5.279974
 20
3.98205
  0
LWPOLYLINE
  5
5B
100
AcDbEntity
  8
0
  6
Continuous
 62
     7
100
AcDbPolyline
 90
        4
 70
     0
 10
3.645705
 20
3.98205
 40
0.0
 41
0.0
 10
3.770705
 20
3.9658
 40
0.0
 41
0.0
 10
3.770705
 20
3.9983
 40
0.0
 41
0.0
 10
3.645705
 20
3.98205
 40
0.0
 41
0.0
  0
HATCH
  5
59
100
AcDbEntity
  8
0
  6
Continuous
 62
     7
100
AcDbHatch
 10
0.0
 20
0.0
 30
0.0
210
0.0
220
0.0
230
1.0
  2
SOLID
 70
     1
 71
     1
 91
        1
 92
        3
 72
     0
 73
     1
 93
        3
 10
3.6457045494041598
 20
3.9820503435836527
 10
3.7707045494041598
 20
3.9658003435836529
 10
3.7707045494041598
 20
3.9983003435836526
 97
        1
330
5A
 75
     0
 76
     0
 98
        0
  0
LWPOLYLINE
  5
5E
100
AcDbEntity
  8
0
  6
Continuous
 62
     7
100
AcDbPolyline
 90
        4
 70
     0
 10
6.914243
 20
3.98205
 40
0.0
 41
0.0
 10
6.789243
 20
3.9983
 40
0.0
 41
0.0
 10
6.789243
 20
3.9658
 40
0.0
 41
0.0
 10
6.914243
 20
3.98205
 40
0.0
 41
0.0
  0
HATCH
  5
5C
100
AcDbEntity
  8
0
  6
Continuous
 62
     7
100
AcDbHatch
 10
0.0
 20
0.0
 30
0.0
210
0.0
220
0.0
230
1.0
  2
SOLID
 70
     1
 71
     1
 91
        1
 92
        3
 72
     0
 73
     1
 93
        3
 10
6.9142434346612829
 20
3.9820503435836527
 10
6.7892434346612829
 20
3.9983003435836526
 10
6.7892434346612829
 20
3.9658003435836529
 97
        1
330
5D
 75
     0
 76
     0
 98
        0
  0
TEXT
  5
5F
100
AcDbEntity
  8
0
  6
Continuous
 62
     7
100
AcDbText
 10
5.033661
 20
4.083439
 30
0.0
 40
0.116667
  1
3 1/4
  7
_TCW_TXTSTY_1
 72
     1
 11
5.211687
 21
4.141773
 31
0.0
100
AcDbText
 73
     2
  0
TEXT
  5
60
100
AcDbEntity
  8
0
  6
Continuous
 62
     7
100
AcDbText
 10
5.389713
 20
4.083439
 30
0.0
 40
0.116667
  1
in
  7
_TCW_TXTSTY_1
 11
5.389713
 21
4.200106
 31
0.0
100
AcDbText
 73
     3
  0
ENDBLK
  5
61
100
AcDbEntity
  8
0
100
AcDbBlockEnd
  0
BLOCK
  5
64
100
AcDbEntity
  8
0
100
AcDbBlockBegin
  2
*D1
 70
     1
 10
0.0
 20
0.0
 30
0.0
  3
*D1
  1

  0
LINE
  5
65
100
AcDbEntity
  8
0
370
     0
  6
Continuous
 62
     7
100
AcDbLine
 10
3.888485
 20
3.882305
 30
0.0
 11
3.019505
 21
3.882305
 31
0.0
  0
LINE
  5
66
100
AcDbEntity
  8
0
370
     0
  6
Continuous
 62
     7
100
AcDbLine
 10
3.826011
 20
3.186574
 30
0.0
 11
3.019505
 21
3.186574
 31
0.0
  0
LWPOLYLINE
  5
67
100
AcDbEntity
  8
0
  6
Continuous
 62
     7
100
AcDbPolyline
 90
        4
 70
     0
 10
3.144505
 20
3.757305
 10
3.144505
 20
3.757305
 10
3.144505
 20
3.757305
 10
3.144505
 20
3.651106
  0
LWPOLYLINE
  5
68
100
AcDbEntity
  8
0
  6
Continuous
 62
     7
100
AcDbPolyline
 90
        4
 70
     0
 10
3.144505
 20
3.311574
 10
3.144505
 20
3.311574
 10
3.144505
 20
3.311574
 10
3.144505
 20
3.417773
  0
LWPOLYLINE
  5
6B
100
AcDbEntity
  8
0
  6
Continuous
 62
     7
100
AcDbPolyline
 90
        4
 70
     0
 10
3.144505
 20
3.882305
 40
0.0
 41
0.0
 10
3.128255
 20
3.757305
 40
0.0
 41
0.0
 10
3.160755
 20
3.757305
 40
0.0
 41
0.0
 10
3.144505
 20
3.882305
 40
0.0
 41
0.0
  0
HATCH
  5
69
100
AcDbEntity
  8
0
  6
Continuous
 62
     7
100
AcDbHatch
 10
0.0
 20
0.0
 30
0.0
210
0.0
220
0.0
230
1.0
  2
SOLID
 70
     1
 71
     1
 91
        1
 92
        3
 72
     0
 73
     1
 93
        3
 10
3.1445045454287524
 20
3.8823051782628348
 10
3.1282545454287525
 20
3.7573051782628348
 10
3.1607545454287522
 20
3.7573051782628348
 97
        1
330
6A
 75
     0
 76
     0
 98
        0
  0
LWPOLYLINE
  5
6E
100
AcDbEntity
  8
0
  6
Continuous
 62
     7
100
AcDbPolyline
 90
        4
 70
     0
 10
3.144505
 20
3.186574
 40
0.0
 41
0.0
 10
3.160755
 20
3.311574
 40
0.0
 41
0.0
 10
3.128255
 20
3.311574
 40
0.0
 41
0.0
 10
3.144505
 20
3.186574
 40
0.0
 41
0.0
  0
HATCH
  5
6C
100
AcDbEntity
  8
0
  6
Continuous
 62
     7
100
AcDbHatch
 10
0.0
 20
0.0
 30
0.0
210
0.0
220
0.0
230
1.0
  2
SOLID
 70
     1
 71
     1
 91
        1
 92
        3
 72
     0
 73
     1
 93
        3
 10
3.1445045454287524
 20
3.1865737760185211
 10
3.1607545454287522
 20
3.3115737760185211
 10
3.1282545454287525
 20
3.3115737760185211
 97
        1
330
6D
 75
     0
 76
     0
 98
        0
  0
TEXT
  5
6F
100
AcDbEntity
  8
0
  6
Continuous
 62
     7
100
AcDbText
 10
2.876243
 20
3.476106
 30
0.0
 40
0.116667
  1
11/16
  7
_TCW_TXTSTY_1
 72
     1
 11
3.076218
 21
3.534439
 31
0.0
100
AcDbText
 73
     2
  0
TEXT
  5
70
100
AcDbEntity
  8
0
  6
Continuous
 62
     7
100
AcDbText
 10
3.276192
 20
3.476106
 30
0.0
 40
0.116667
  1
in
  7
_TCW_TXTSTY_1
 11
3.276192
 21
3.592773
 31
0.0
100
AcDbText
 73
     3
  0
ENDBLK
  5
71
100
AcDbEntity
  8
0
100
AcDbBlockEnd
  0
ENDSEC
  0
SECTION
  2
ENTITIES
  0
VIEWPORT
  5
34
100
AcDbEntity
 67
     1
  8
0
100
AcDbViewport
 10
3.299358
 20
2.844565
 30
0.0
 40
56.067432
 41
15.266335
 68
     1
 69
     1
 12
3.299358
 22
2.844565
 13
0.0
 23
0.0
 14
0.5
 24
0.5
 15
0.5
 25
0.5
 16
0.0
 26
0.0
 36
1.0
 17
0.0
 27
0.0
 37
0.0
 42
50.0
 43
0.0
 44
0.0
 45
15.266335
 50
0.0
 51
0.0
 72
   100
 90
    32800
340
0
  1

281
     0
 71
     0
 74
     1
110
0.0
120
0.0
130
0.0
111
1.0
121
0.0
131
0.0
112
0.0
122
1.0
132
0.0
345
0
346
0
 79
     0
146
0.0
  0
TEXT
  5
35
100
AcDbEntity
 67
     1
  8
0
  6
Continuous
 62
     7
100
AcDbText
 10
4.57898
 20
1.944391
 30
0.0
 40
0.133333
  1
Casing  # 1131
  7
_TCW_TXTSTY_1
 11
4.57898
 21
2.077724
 31
0.0
100
AcDbText
 73
     3
1001
TCAD
1000
TCW40_TEXT
1002
{
1000
Times New Roman
1070
     0
1070
   257
1002
}
  0
MTEXT
  5
37
100
AcDbEntity
 67
     1
  8
0
  6
Continuous
 62
     7
100
AcDbMText
 10
4.57898
 20
1.66907
 30
0.0
 40
0.0875
 41
1.350353
 71
     1
 72
     1
  1
{Saroyan Lumber Co.\P(800) 624-9309}
  7
_TCW_TXTSTY_2
 73
     1
 44
1.0
1001
TCAD
1000
TCW_REFPOINT
1002
{
1010
4.57898
1020
1.559253
1030
0.0
1002
}
1001
TCAD
1000
TCW40_TEXT
1002
{
1000
Times New Roman
1070
     0
1070
   257
1002
}
  0
MTEXT
  5
38
100
AcDbEntity
 67
     1
  8
0
  6
Continuous
 62
     7
100
AcDbMText
 10
4.578688
 20
1.863637
 30
0.0
 40
0.1
 41
0.810994
 71
     1
 72
     1
  1
{11/16 x 3-1/4\P}
  7
_TCW_TXTSTY_1
 73
     1
 44
1.0
1001
TCAD
1000
TCW_REFPOINT
1002
{
1010
4.578688
1020
1.89697
1030
0.0
1002
}
1001
TCAD
1000
TCW40_TEXT
1002
{
1000
Times New Roman
1070
     0
1070
   257
1002
}
  0
LINE
  5
39
100
AcDbEntity
 67
     1
  8
0
370
    35
  6
Continuous
 62
    30
100
AcDbLine
 10
3.645705
 20
3.798807
 30
0.0
 11
3.645705
 21
3.258718
 31
0.0
1001
ACAD
1000
TCW40_DEV_WIDTH
1002
{
1040
0.014
1002
}
  0
LINE
  5
3A
100
AcDbEntity
 67
     1
  8
0
370
    35
  6
Continuous
 62
    30
100
AcDbLine
 10
4.077431
 20
3.882305
 30
0.0
 11
3.729203
 21
3.882305
 31
0.0
1001
ACAD
1000
TCW40_DEV_WIDTH
1002
{
1040
0.014
1002
}
  0
LINE
  5
3B
100
AcDbEntity
 67
     1
  8
0
370
    35
  6
Continuous
 62
    30
100
AcDbLine
 10
6.914228
 20
3.186574
 30
0.0
 11
5.695477
 21
3.186574
 31
0.0
1001
ACAD
1000
TCW40_DEV_WIDTH
1002
{
1040
0.014
1002
}
  0
ARC
  5
3C
100
AcDbEntity
 67
     1
  8
0
370
    35
  6
Continuous
 62
    30
100
AcDbCircle
 10
4.758057
 20
3.388435
 30
0.0
 40
0.506125
100
AcDbArc
 50
132.60344
 51
152.454679
1001
ACAD
1000
TCW40_DEV_WIDTH
1002
{
1040
0.014
1002
}
  0
ARC
  5
3D
100
AcDbEntity
 67
     1
  8
0
370
    35
  6
Continuous
 62
    30
100
AcDbCircle
 10
4.683585
 20
3.422936
 30
0.0
 40
0.431467
100
AcDbArc
 50
96.480619
 51
128.421987
1001
ACAD
1000
TCW40_DEV_WIDTH
1002
{
1040
0.014
1002
}
  0
ARC
  5
3E
100
AcDbEntity
 67
     1
  8
0
370
    35
  6
Continuous
 62
    30
100
AcDbCircle
 10
4.701725
 20
2.931012
 30
0.0
 40
0.923058
100
AcDbArc
 50
65.571368
 51
94.152418
1001
ACAD
1000
TCW40_DEV_WIDTH
1002
{
1040
0.014
1002
}
  0
ARC
  5
3F
100
AcDbEntity
 67
     1
  8
0
370
    35
  6
Continuous
 62
    30
100
AcDbCircle
 10
3.167931
 20
-0.445732
 30
0.0
 40
4.631822
100
AcDbArc
 50
60.736719
 51
65.571368
1001
ACAD
1000
TCW40_DEV_WIDTH
1002
{
1040
0.014
1002
}
  0
ARC
  5
40
100
AcDbEntity
 67
     1
  8
0
370
    35
  6
Continuous
 62
    30
100
AcDbCircle
 10
6.196384
 20
4.95902
 30
0.0
 40
1.56357
100
AcDbArc
 50
-119.263281
 51
-114.274917
1001
ACAD
1000
TCW40_DEV_WIDTH
1002
{
1040
0.014
1002
}
  0
ARC
  5
41
100
AcDbEntity
 67
     1
  8
0
370
    35
  6
Continuous
 62
    30
100
AcDbCircle
 10
6.089399
 20
4.721798
 30
0.0
 40
1.303339
100
AcDbArc
 50
-114.274917
 51
-86.090577
1001
ACAD
1000
TCW40_DEV_WIDTH
1002
{
1040
0.014
1002
}
  0
ARC
  5
42
100
AcDbEntity
 67
     1
  8
0
370
    35
  6
Continuous
 62
    30
100
AcDbCircle
 10
6.285234
 20
3.387628
 30
0.0
 40
0.112206
100
AcDbArc
 50
82.921775
 51
162.434215
1001
ACAD
1000
TCW40_DEV_WIDTH
1002
{
1040
0.014
1002
}
  0
ARC
  5
43
100
AcDbEntity
 67
     1
  8
0
370
    35
  6
Continuous
 62
    30
100
AcDbCircle
 10
6.409366
 20
3.449733
 30
0.0
 40
0.123723
100
AcDbArc
 50
28.780492
 51
113.169242
1001
ACAD
1000
TCW40_DEV_WIDTH
1002
{
1040
0.014
1002
}
  0
ARC
  5
44
100
AcDbEntity
 67
     1
  8
0
370
    35
  6
Continuous
 62
    30
100
AcDbCircle
 10
6.529235
 20
3.374266
 30
0.0
 40
0.135517
100
AcDbArc
 50
29.783938
 51
94.837929
1001
ACAD
1000
TCW40_DEV_WIDTH
1002
{
1040
0.014
1002
}
  0
ARC
  5
45
100
AcDbEntity
 67
     1
  8
0
370
    35
  6
Continuous
 62
    30
100
AcDbCircle
 10
6.634841
 20
3.115953
 30
0.0
 40
0.325849
100
AcDbArc
 50
47.062662
 51
87.88775
1001
ACAD
1000
TCW40_DEV_WIDTH
1002
{
1040
0.014
1002
}
  0
ARC
  5
46
100
AcDbEntity
 67
     1
  8
0
370
    35
  6
Continuous
 62
    30
100
AcDbCircle
 10
6.534358
 20
3.19005
 30
0.0
 40
0.379886
100
AcDbArc
 50
-0.524356
 51
11.45516
1001
ACAD
1000
TCW40_DEV_WIDTH
1002
{
1040
0.014
1002
}
  0
ARC
  5
47
100
AcDbEntity
 67
     1
  8
0
370
    35
  6
Continuous
 62
    30
100
AcDbCircle
 10
6.743155
 20
3.232361
 30
0.0
 40
0.166845
100
AcDbArc
 50
11.45516
 51
47.062662
1001
ACAD
1000
TCW40_DEV_WIDTH
1002
{
1040
0.014
1002
}
  0
ARC
  5
48
100
AcDbEntity
 67
     1
  8
0
370
    35
  6
Continuous
 62
    30
100
AcDbCircle
 10
6.466939
 20
3.408413
 30
0.0
 40
0.190749
100
AcDbArc
 50
132.929091
 51
151.654501
1001
ACAD
1000
TCW40_DEV_WIDTH
1002
{
1040
0.014
1002
}
  0
ARC
  5
49
100
AcDbEntity
 67
     1
  8
0
370
    35
  6
Continuous
 62
    30
100
AcDbCircle
 10
6.393059
 20
3.487836
 30
0.0
 40
0.082277
100
AcDbArc
 50
113.169243
 51
132.929091
1001
ACAD
1000
TCW40_DEV_WIDTH
1002
{
1040
0.014
1002
}
  0
ARC
  5
4A
100
AcDbEntity
 67
     1
  8
0
370
    35
  6
Continuous
 62
    30
100
AcDbCircle
 10
3.729203
 20
3.798807
 30
0.0
 40
0.083498
100
AcDbArc
 50
90.0
 51
174.270422
1001
ACAD
1000
TCW40_DEV_WIDTH
1002
{
1040
0.014
1002
}
  0
ARC
  5
4B
100
AcDbEntity
 67
     1
  8
0
370
    35
  6
Continuous
 62
    30
100
AcDbCircle
 10
4.077431
 20
3.627973
 30
0.0
 40
0.254332
100
AcDbArc
 50
57.407419
 51
90.0
1001
ACAD
1000
TCW40_DEV_WIDTH
1002
{
1040
0.014
1002
}
  0
ARC
  5
4C
100
AcDbEntity
 67
     1
  8
0
370
    35
  6
Continuous
 62
    30
100
AcDbCircle
 10
4.131126
 20
3.711958
 30
0.0
 40
0.15465
100
AcDbArc
 50
30.349819
 51
57.407419
1001
ACAD
1000
TCW40_DEV_WIDTH
1002
{
1040
0.014
1002
}
  0
ARC
  5
4D
100
AcDbEntity
 67
     1
  8
0
370
    35
  6
Continuous
 62
    30
100
AcDbCircle
 10
3.982905
 20
3.625171
 30
0.0
 40
0.326409
100
AcDbArc
 50
-0.470159
 51
30.349823
1001
ACAD
1000
TCW40_DEV_WIDTH
1002
{
1040
0.014
1002
}
  0
ARC
  5
4E
100
AcDbEntity
 67
     1
  8
0
370
    35
  6
Continuous
 62
    30
100
AcDbCircle
 10
3.717849
 20
3.258718
 30
0.0
 40
0.072145
100
AcDbArc
 50
180.0
 51
270.0
1001
ACAD
1000
TCW40_DEV_WIDTH
1002
{
1040
0.014
1002
}
  0
LINE
  5
4F
100
AcDbEntity
 67
     1
  8
0
370
    35
  6
Continuous
 62
    30
100
AcDbLine
 10
5.695477
 20
3.186574
 30
0.0
 11
5.609411
 21
3.24745
 31
0.0
1001
ACAD
1000
TCW40_DEV_WIDTH
1002
{
1040
0.014
1002
}
  0
LINE
  5
50
100
AcDbEntity
 67
     1
  8
0
370
    35
  6
Continuous
 62
    30
100
AcDbLine
 10
4.117645
 20
3.24745
 30
0.0
 11
4.031239
 21
3.186574
 31
0.0
1001
ACAD
1000
TCW40_DEV_WIDTH
1002
{
1040
0.014
1002
}
  0
LINE
  5
51
100
AcDbEntity
 67
     1
  8
0
370
    35
  6
Continuous
 62
    30
100
AcDbLine
 10
5.609411
 20
3.24745
 30
0.0
 11
4.117645
 21
3.24745
 31
0.0
1001
ACAD
1000
TCW40_DEV_WIDTH
1002
{
1040
0.014
1002
}
  0
LINE
  5
52
100
AcDbEntity
 67
     1
  8
0
370
    35
  6
Continuous
 62
    30
100
AcDbLine
 10
4.031239
 20
3.186574
 30
0.0
 11
3.717849
 21
3.186574
 31
0.0
1001
ACAD
1000
TCW40_DEV_WIDTH
1002
{
1040
0.014
1002
}
  0
DIMENSION
  5
62
100
AcDbEntity
 67
     1
  8
0
  6
Continuous
 62
     7
100
AcDbDimension
  2
*D0
 10
6.914243
 20
3.98205
 30
0.0
 11
5.279974
 21
4.141773
 31
0.0
 71
     5
 72
     1
 41
1.0
 42
0.0
  1
<>
  3
STANDARD
100
AcDbAlignedDimension
 13
3.645705
 23
3.557157
 33
0.0
 14
6.914243
 24
3.19005
 34
0.0
100
AcDbRotatedDimension
1001
ACAD
1000
DSTYLE
1002
{
1002
}
  0
DIMENSION
  5
72
100
AcDbEntity
 67
     1
  8
0
  6
Continuous
 62
     7
100
AcDbDimension
  2
*D1
 10
3.144505
 20
3.186574
 30
0.0
 11
3.144505
 21
3.534439
 31
0.0
 71
     5
 72
     1
 41
1.0
 42
0.0
  1
<>
  3
STANDARD
100
AcDbAlignedDimension
 13
3.950985
 23
3.882305
 33
0.0
 14
3.888511
 24
3.186574
 34
0.0
 50
-90.0
100
AcDbRotatedDimension
1001
ACAD
1000
DSTYLE
1002
{
1002
}
  0
ENDSEC
  0
SECTION
  2
OBJECTS
  0
DICTIONARY
  5
19
100
AcDbDictionary
280
     0
281
     1
  3
ACAD_GROUP
350
1A
  3
ACAD_MLINESTYLE
350
1B
  3
ACAD_LAYOUT
350
1E
  3
ACAD_PLOTSETTINGS
350
22
  3
ACAD_PLOTSTYLENAME
350
1F
  0
DICTIONARY
  5
1A
102
{ACAD_REACTORS
330
19
102
}
100
AcDbDictionary
280
     0
281
     1
  0
DICTIONARY
  5
1B
102
{ACAD_REACTORS
330
19
102
}
100
AcDbDictionary
280
     0
281
     1
  3
Standard
350
1C
  0
MLINESTYLE
  5
1C
100
AcDbMlineStyle
  2
STANDARD
 70
     0
  3

 62
   256
 51
90.0
 52
90.0
 71
     3
 49
0.25
 62
     7
  6
ByLayer
 49
0.0
 62
     7
  6
ByLayer
 49
-0.25
 62
     7
  6
ByLayer
  0
ACDBDICTIONARYWDFLT
  5
1F
102
{ACAD_REACTORS
330
19
102
}
100
AcDbDictionary
281
     1
  3
Normal
350
1D
100
AcDbDictionaryWithDefault
340
1D
  0
ACDBPLACEHOLDER
  5
1D
102
{ACAD_REACTORS
330
1F
102
}
  0
LAYOUT
  5
21
102
{ACAD_REACTORS
330
1E
102
}
100
AcDbPlotSettings
  1

  2

  4

  6

 40
0.0
 41
0.0
 42
0.0
 43
0.0
 44
0.0
 45
0.0
 46
0.0
 47
0.0
 48
0.0
 49
0.0
140
0.0
141
0.0
142
1.0
143
1.0
 70
     0
 72
     0
 73
     0
 74
     0
  7

 75
     0
147
1.0
148
0.0
149
0.0
100
AcDbLayout
  1
Layout1
 70
     0
 71
     0
 10
0.0
 20
0.0
 11
0.0
 21
0.0
 12
0.0
 22
0.0
 32
0.0
 14
0.0
 24
0.0
 34
0.0
 15
0.0
 25
0.0
 35
0.0
146
0.0
 13
0.0
 23
0.0
 33
0.0
 16
0.0
 26
0.0
 36
0.0
 17
0.0
 27
0.0
 37
0.0
 76
     0
330
B
331
0
345
0
346
0
  0
DICTIONARY
  5
1E
102
{ACAD_REACTORS
330
19
102
}
100
AcDbDictionary
280
     0
281
     1
  3
Model
350
33
  3
Paper 1
350
73
  0
DICTIONARY
  5
22
102
{ACAD_REACTORS
330
19
102
}
100
AcDbDictionary
280
     0
281
     1
  0
LAYOUT
  5
33
100
AcDbPlotSettings
  1

  2

  4

  6

 40
0.0
 41
0.0
 42
0.0
 43
0.0
 44
0.0
 45
0.0
 46
0.0
 47
0.0
 48
0.0
 49
0.0
140
0.0
141
0.0
142
1.0
143
1.0
 70
     0
 72
     0
 73
     0
 74
     0
  7

 75
     0
147
1.0
148
0.0
149
0.0
100
AcDbLayout
  1
Model
 70
     0
 71
     0
 10
0.0
 20
0.0
 11
0.0
 21
0.0
 12
0.0
 22
0.0
 32
0.0
 14
0.0
 24
0.0
 34
0.0
 15
0.0
 25
0.0
 35
0.0
146
0.0
 13
0.0
 23
0.0
 33
0.0
 16
0.0
 26
0.0
 36
0.0
 17
0.0
 27
0.0
 37
0.0
 76
     0
330
A
331
0
345
0
346
0
  0
LAYOUT
  5
73
100
AcDbPlotSettings
  1

  2

  4

  6

 40
0.0
 41
0.0
 42
0.0
 43
0.0
 44
215.9
 45
279.4
 46
-31.75
 47
31.75
 48
0.0
 49
0.0
140
0.0
141
0.0
142
1.0
143
1.0
 70
     0
 72
     0
 73
     0
 74
     0
  7

 75
     0
147
1.0
148
0.0
149
0.0
100
AcDbLayout
  1
Paper 1
 70
     1
 71
     1
 10
31.75
 20
-31.75
 11
247.65
 21
247.65
 12
0.0
 22
0.0
 32
0.0
 14
0.0
 24
0.0
 34
0.0
 15
0.0
 25
0.0
 35
0.0
146
0.0
 13
0.0
 23
0.0
 33
0.0
 16
0.0
 26
0.0
 36
0.0
 17
0.0
 27
0.0
 37
0.0
 76
     0
330
B
331
34
345
0
346
0
  0
ENDSEC
  0
EOF
