  0
SECTION
  2
HEADER
  9
$ACADVER
  1
AC1014
  9
$ACADMAINTVER
 70
  0
  9
$DWGCODEPAGE
  3
ANSI_1252
  9
$INSBASE
 10
0.0
 20
0.0
 30
0.0
  9
$EXTMIN
 10
5.067
 20
5.03
 30
0.0
  9
$EXTMAX
 10
7.567
 20
5.842
 30
0.0
  9
$LIMMIN
 10
1.108
 20
-6.62
  9
$LIMMAX
 10
15.108
 20
5.38
  9
$ORTHOMODE
 70
  0
  9
$REGENMODE
 70
  1
  9
$FILLMODE
 70
  1
  9
$QTEXTMODE
 70
  0
  9
$MIRRTEXT
 70
  1
  9
$DRAGMODE
 70
  0
  9
$LTSCALE
 40
1.0
  9
$OSMODE
 70
  0
  9
$ATTMODE
 70
  1
  9
$TEXTSIZE
 40
0.5
  9
$TRACEWID
 40
1.0
  9
$TEXTSTYLE
  7
STANDARD
  9
$CLAYER
  8
0
  9
$CELTYPE
  6
CONTINUOUS
  9
$CECOLOR
 62
  7
  9
$CELTSCALE
 40
1.0
  9
$DELOBJ
 70
  1
  9
$DISPSILH
 70
  0
  9
$DIMSCALE
 40
1.0
  9
$DIMASZ
 40
0.125
  9
$DIMEXO
 40
0.063
  9
$DIMDLI
 40
0.375
  9
$DIMRND
 40
0.0
  9
$DIMDLE
 40
0.0
  9
$DIMEXE
 40
0.125
  9
$DIMTP
 40
0.0
  9
$DIMTM
 40
0.0
  9
$DIMTXT
 40
0.117
  9
$DIMCEN
 40
0.09
  9
$DIMTSZ
 40
0.0
  9
$DIMTOL
 70
  0
  9
$DIMLIM
 70
  0
  9
$DIMTIH
 70
  1
  9
$DIMTOH
 70
  1
  9
$DIMSE1
 70
  0
  9
$DIMSE2
 70
  0
  9
$DIMTAD
 70
  1
  9
$DIMZIN
 70
  0
  9
$DIMBLK
  1

  9
$DIMASO
 70
  0
  9
$DIMSHO
 70
  1
  9
$DIMPOST
  1
<>in
  9
$DIMAPOST
  1
<>
  9
$DIMALT
 70
  0
  9
$DIMALTD
 70
  2
  9
$DIMALTF
 40
1.0
  9
$DIMLFAC
 40
1.0
  9
$DIMTOFL
 70
  1
  9
$DIMTVP
 40
0.0
  9
$DIMTIX
 70
  1
  9
$DIMSOXD
 70
  0
  9
$DIMSAH
 70
  0
  9
$DIMBLK1
  1

  9
$DIMBLK2
  1

  9
$DIMSTYLE
  2
STANDARD
  9
$DIMCLRD
 70
  7
  9
$DIMCLRE
 70
  7
  9
$DIMCLRT
 70
  7
  9
$DIMTFAC
 40
1.0
  9
$DIMGAP
 40
0.063
  9
$DIMJUST
 70
  0
  9
$DIMSD1
 70
  0
  9
$DIMSD2
 70
  0
  9
$DIMTOLJ
 70
  1
  9
$DIMTZIN
 70
  0
  9
$DIMALTZ
 70
  0
  9
$DIMALTTZ
 70
  0
  9
$DIMFIT
 70
  0
  9
$DIMUPT
 70
  0
  9
$DIMUNIT
 70
  5
  9
$DIMDEC
 70
  4
  9
$DIMTDEC
 70
  4
  9
$DIMALTU
 70
  2
  9
$DIMALTTD
 70
  2
  9
$DIMTXSTY
  7
STANDARD
  9
$DIMAUNIT
 70
  0
  9
$LUNITS
 70
  2
  9
$LUPREC
 70
  2
  9
$SKETCHINC
 40
1.0
  9
$FILLETRAD
 40
1.0
  9
$AUNITS
 70
  0
  9
$AUPREC
 70
  2
  9
$MENU
  1
acad
  9
$ELEVATION
 40
0.0
  9
$PELEVATION
 40
0.0
  9
$THICKNESS
 40
0.0
  9
$LIMCHECK
 70
  0
  9
$BLIPMODE
 70
  1
  9
$CHAMFERA
 40
0.0
  9
$CHAMFERB
 40
0.0
  9
$CHAMFERC
 40
0.0
  9
$CHAMFERD
 40
0.0
  9
$SKPOLY
 70
  0
  9
$TDCREATE
 40
0.000000000
  9
$TDUPDATE
 40
0.000000000
  9
$TDINDWG
 40
0.0000000000
  9
$TDUSRTIMER
 40
0.0000000000
  9
$USRTIMER
 70
  1
  9
$ANGBASE
 50
0.0
  9
$ANGDIR
 70
  0
  9
$PDMODE
 70
  0
  9
$PDSIZE
 40
0.0
  9
$PLINEWID
 40
0.0
  9
$COORDS
 70
  0
  9
$SPLFRAME
 70
  0
  9
$SPLINETYPE
 70
  5
  9
$SPLINESEGS
 70
 20
  9
$ATTDIA
 70
  0
  9
$ATTREQ
 70
  1
  9
$HANDLING
 70
  1
  9
$HANDSEED
  5
6E
  9
$SURFTAB1
 70
  6
  9
$SURFTAB2
 70
  6
  9
$SURFTYPE
 70
  6
  9
$SURFU
 70
  6
  9
$SURFV
 70
  6
  9
$UCSNAME
  2

  9
$UCSORG
 10
0.0
 20
0.0
 30
0.0
  9
$UCSXDIR
 10
1.0
 20
0.0
 30
0.0
  9
$UCSYDIR
 10
0.0
 20
1.0
 30
0.0
  9
$PUCSNAME
  2

  9
$PUCSORG
 10
0.0
 20
0.0
 30
0.0
  9
$PUCSXDIR
 10
1.0
 20
0.0
 30
0.0
  9
$PUCSYDIR
 10
0.0
 20
1.0
 30
0.0
  9
$USERI1
 70
  0
  9
$USERI2
 70
  0
  9
$USERI3
 70
  0
  9
$USERI4
 70
  0
  9
$USERI5
 70
  0
  9
$USERR1
 40
0.0
  9
$USERR2
 40
0.0
  9
$USERR3
 40
0.0
  9
$USERR4
 40
0.0
  9
$USERR5
 40
0.0
  9
$WORLDVIEW
 70
  1
  9
$SHADEDGE
 70
  3
  9
$SHADEDIF
 70
 70
  9
$TILEMODE
 70
  0
  9
$MAXACTVP
 70
 16
  9
$PINSBASE
 10
0.0
 20
0.0
 30
0.0
  9
$PLIMCHECK
 70
  0
  9
$PEXTMIN
 10
1.25
 20
-1.25
 30
0.0
  9
$PEXTMAX
 10
9.75
 20
9.75
 30
0.0
  9
$PLIMMIN
 10
1.25
 20
-1.25
  9
$PLIMMAX
 10
9.75
 20
9.75
  9
$UNITMODE
 70
  0
  9
$VISRETAIN
 70
  0
  9
$PLINEGEN
 70
  1
  9
$PSLTSCALE
 70
  1
  9
$TREEDEPTH
 70
3020
  9
$PICKSTYLE
 70
  1
  9
$CMLSTYLE
  2
STANDARD
  9
$CMLJUST
 70
  0
  9
$CMLSCALE
 40
1.0
  9
$PROXYGRAPHICS
 70
  0
  9
$MEASUREMENT
 70
  0
  0
ENDSEC
  0
SECTION
  2
CLASSES
  0
CLASS
  1
LWPOLYLINE
  2
AcDbPolyline
  3
"AutoCAD"
 90
        0
280
  0
281
  1
  0
CLASS
  1
IMAGE
  2
AcDbRasterImage
  3
ISM
 90
      127
280
  0
281
  1
  0
CLASS
  1
OLE2FRAME
  2
AcDbOle2Frame
  3
""
 90
        0
280
  0
281
  1
  0
CLASS
  1
HATCH
  2
AcDbHatch
  3
"ACAD_SEDONA"
 90
        0
280
  0
281
  1
  0
CLASS
  1
DICTIONARYVAR
  2
AcDbDictionaryVar
  3
"AutoCAD"
 90
        0
280
  0
281
  0
  0
CLASS
  1
RASTERVARIABLES
  2
AcDbRasterVariables
  3
ISM
 90
        0
280
  0
281
  0
  0
CLASS
  1
IMAGEDEF
  2
AcDbRasterImageDef
  3
ISM
 90
        0
280
  0
281
  0
  0
CLASS
  1
IMAGEDEF_REACTOR
  2
AcDbRasterImageDefReactor
  3
ISM
 90
        1
280
  0
281
  0
  0
CLASS
  1
IDBUFFER
  2
AcDbIdBuffer
  3
"Acad"
 90
        0
280
  0
281
  0
  0
CLASS
  1
SPATIAL_FILTER
  2
AcDbSpatialFilter
  3
"Acad"
 90
        0
280
  0
281
  0
  0
CLASS
  1
XRECORD
  2
AcDbXrecord
  3
"<Built In>"
 90
        0
280
  0
281
  0
  0
CLASS
  1
SORTENTSTABLE
  2
AcDbSortentsTable
  3
"AutoCAD"
 90
        0
280
  0
281
  0
  0
CLASS
  1
LAYER_INDEX
  2
AcDbLayerIndex
  3
"Acad"
 90
        0
280
  0
281
  0
  0
CLASS
  1
SPATIAL_INDEX
  2
AcDbSpatialIndex
  3
"Acad"
 90
        0
280
  0
281
  0
  0
CLASS
  1
OBJECT_PTR
  2
CAseDLPNTableRecord
  3
"ASE-LPNTableRecord"
 90
        1
280
  0
281
  0
  0
CLASS
  1
LAYOUT
  2
AcDbLayout
  3
"AutoCAD 2000"
 90
        1
280
  0
281
  0
  0
CLASS
  1
PLOTSETTINGS
  2
AcDbPlotSettings
  3
"AutoCAD 2000"
 90
        1
280
  0
281
  0
  0
CLASS
  1
ACDBDICTIONARYWDFLT
  2
AcDbDictionaryWithDefault
  3
"AutoCAD 2000"
 90
        1
280
  0
281
  0
  0
CLASS
  1
ACDBPLACEHOLDER
  2
AcDbPlaceHolder
  3
"AutoCAD 2000"
 90
        1
280
  0
281
  0
  0
ENDSEC
  0
SECTION
  2
TABLES
  0
TABLE
  2
VPORT
  5
7
100
AcDbSymbolTable
 70
  1
  0
VPORT
  5
15
100
AcDbSymbolTableRecord
100
AcDbViewportTableRecord
  2
*ACTIVE
 70
  0
 10
0.0
 20
0.0
 11
1.0
 21
1.0
 12
7.453
 22
3.752
 13
0.0
 23
0.0
 14
0.5
 24
0.5
 15
0.5
 25
0.5
 16
0.0
 26
0.0
 36
1.0
 17
0.0
 27
0.0
 37
0.0
 40
6.499
 41
1.695
 42
50.0
 43
0.0
 44
0.0
 50
0.0
 51
0.0
 71
  0
 72
100
 73
  1
 74
  1
 75
  0
 76
  0
 77
  0
 78
  0
  0
ENDTAB
  0
TABLE
  2
LTYPE
  5
4
100
AcDbSymbolTable
 70
 15
  0
LTYPE
  5
11
100
AcDbSymbolTableRecord
100
AcDbLinetypeTableRecord
  2
BYBLOCK
 70
 64
  3

 72
 65
 73
  0
 40
0.0
  0
LTYPE
  5
12
100
AcDbSymbolTableRecord
100
AcDbLinetypeTableRecord
  2
BYLAYER
 70
 64
  3

 72
 65
 73
  0
 40
0.0
  0
LTYPE
  5
13
100
AcDbSymbolTableRecord
100
AcDbLinetypeTableRecord
  2
CONTINUOUS
 70
 64
  3
Solid line
 72
 65
 73
  0
 40
0.0
  0
LTYPE
  5
1E
100
AcDbSymbolTableRecord
100
AcDbLinetypeTableRecord
  2
BORDER
 70
  0
  3
BORDER
 72
 65
 73
  6
 40
1.75
 49
0.5
 74
  0
 49
-0.25
 74
  0
 49
0.5
 74
  0
 49
-0.25
 74
  0
 49
0.0
 74
  0
 49
-0.25
 74
  0
  0
LTYPE
  5
1F
100
AcDbSymbolTableRecord
100
AcDbLinetypeTableRecord
  2
CENTER
 70
  0
  3
CENTER
 72
 65
 73
  4
 40
2.0
 49
1.25
 74
  0
 49
-0.25
 74
  0
 49
0.25
 74
  0
 49
-0.25
 74
  0
  0
LTYPE
  5
20
100
AcDbSymbolTableRecord
100
AcDbLinetypeTableRecord
  2
DASHDOT
 70
  0
  3
DASHDOT
 72
 65
 73
  4
 40
1.0
 49
0.5
 74
  0
 49
-0.25
 74
  0
 49
0.0
 74
  0
 49
-0.25
 74
  0
  0
LTYPE
  5
21
100
AcDbSymbolTableRecord
100
AcDbLinetypeTableRecord
  2
DASHED
 70
  0
  3
DASHED
 72
 65
 73
  2
 40
0.75
 49
0.5
 74
  0
 49
-0.25
 74
  0
  0
LTYPE
  5
22
100
AcDbSymbolTableRecord
100
AcDbLinetypeTableRecord
  2
DIVIDE
 70
  0
  3
DIVIDE
 72
 65
 73
  6
 40
1.25
 49
0.5
 74
  0
 49
-0.25
 74
  0
 49
0.0
 74
  0
 49
-0.25
 74
  0
 49
0.0
 74
  0
 49
-0.25
 74
  0
  0
LTYPE
  5
23
100
AcDbSymbolTableRecord
100
AcDbLinetypeTableRecord
  2
DOT
 70
  0
  3
DOT
 72
 65
 73
  2
 40
0.25
 49
0.0
 74
  0
 49
-0.25
 74
  0
  0
LTYPE
  5
24
100
AcDbSymbolTableRecord
100
AcDbLinetypeTableRecord
  2
HIDDEN
 70
  0
  3
HIDDEN
 72
 65
 73
  2
 40
0.375
 49
0.25
 74
  0
 49
-0.125
 74
  0
  0
LTYPE
  5
25
100
AcDbSymbolTableRecord
100
AcDbLinetypeTableRecord
  2
PHANTOM
 70
  0
  3
PHANTOM
 72
 65
 73
  6
 40
2.5
 49
1.25
 74
  0
 49
-0.25
 74
  0
 49
0.25
 74
  0
 49
-0.25
 74
  0
 49
0.25
 74
  0
 49
-0.25
 74
  0
  0
LTYPE
  5
26
100
AcDbSymbolTableRecord
100
AcDbLinetypeTableRecord
  2
$INVISIBLE
 70
  0
  3
$INVISIBLE
 72
 65
 73
  2
 40
200.0
 49
-100.0
 74
  0
 49
-100.0
 74
  0
  0
LTYPE
  5
27
100
AcDbSymbolTableRecord
100
AcDbLinetypeTableRecord
  2
$SNAPEXT
 70
  0
  3
$SNAPEXT
 72
 65
 73
  2
 40
0.04
 49
0.02
 74
  0
 49
-0.02
 74
  0
  0
LTYPE
  5
28
100
AcDbSymbolTableRecord
100
AcDbLinetypeTableRecord
  2
$CONSTRUCTION
 70
  0
  3
$CONSTRUCTION
 72
 65
 73
  4
 40
0.3
 49
0.2
 74
  0
 49
-0.05
 74
  0
 49
0.0
 74
  0
 49
-0.05
 74
  0
  0
LTYPE
  5
29
100
AcDbSymbolTableRecord
100
AcDbLinetypeTableRecord
  2
$AUXILIARY
 70
  0
  3
$AUXILIARY
 72
 65
 73
  2
 40
0.1
 49
0.05
 74
  0
 49
-0.05
 74
  0
  0
ENDTAB
  0
TABLE
  2
LAYER
  5
2
100
AcDbSymbolTable
 70
  5
  0
LAYER
  5
14
100
AcDbSymbolTableRecord
100
AcDbLayerTableRecord
  2
0
 70
  0
 62
  7
  6
CONTINUOUS
1001
TCAD
1000
TCW_LAYER_ORDER
1002
{
1071
        0
1002
}
  0
LAYER
  5
2A
100
AcDbSymbolTableRecord
100
AcDbLayerTableRecord
  2
$CONSTRUCTION
 70
  0
 62
  9
  6
$CONSTRUCTION
1001
TCAD
1000
TCW_LAYER_ORDER
1002
{
1071
        0
1002
}
  0
LAYER
  5
2B
100
AcDbSymbolTableRecord
100
AcDbLayerTableRecord
  2
LAYER_1
 70
  0
 62
  7
  6
CONTINUOUS
1001
TCAD
1000
TCW_LAYER_ORDER
1002
{
1071
        0
1002
}
  0
LAYER
  5
2C
100
AcDbSymbolTableRecord
100
AcDbLayerTableRecord
  2
LAYER_2
 70
  0
 62
  7
  6
CONTINUOUS
1001
TCAD
1000
TCW_LAYER_ORDER
1002
{
1071
        0
1002
}
  0
LAYER
  5
2D
100
AcDbSymbolTableRecord
100
AcDbLayerTableRecord
  2
7
 70
  0
 62
  7
  6
CONTINUOUS
1001
TCAD
1000
TCW_LAYER_ORDER
1002
{
1071
        0
1002
}
  0
ENDTAB
  0
TABLE
  2
STYLE
  5
3
100
AcDbSymbolTable
 70
  4
  0
STYLE
  5
17
100
AcDbSymbolTableRecord
100
AcDbTextStyleTableRecord
  2
STANDARD
 70
  0
 40
0.0
 41
1.0
 50
0.0
 71
  0
 42
0.15
  3
ARIAL.TTF
  4

1001
ACAD
1000
Arial
1071
       34
  0
STYLE
  5
2F
100
AcDbSymbolTableRecord
100
AcDbTextStyleTableRecord
  2
_TCW_TXTSTY_1
 70
  0
 40
0.0
 41
1.0
 50
0.0
 71
  0
 42
0.6
  3
TIMES.TTF
  4

1001
ACAD
1000
Times New Roman
1071
      290
  0
STYLE
  5
48
100
AcDbSymbolTableRecord
100
AcDbTextStyleTableRecord
  2
_TCW_TXTSTY_2
 70
  0
 40
0.0
 41
1.22
 50
0.0
 71
  0
 42
0.087
  3
TIMES.TTF
  4

1001
ACAD
1000
Times New Roman
1071
      290
  0
STYLE
  5
6C
100
AcDbSymbolTableRecord
100
AcDbTextStyleTableRecord
  2
_TCW_TXTSTY_3
 70
  0
 40
0.0
 41
1.0
 50
0.0
 71
  0
 42
0.059
  3

  4

1001
ACAD
1000
AvantGarde Bk BT
1071
 16777250
  0
ENDTAB
  0
TABLE
  2
VIEW
  5
5
100
AcDbSymbolTable
 70
  1
  0
VIEW
  5
2E
100
AcDbSymbolTableRecord
100
AcDbViewTableRecord
  2
VIEW_0
 70
  0
 40
8.268
 10
5.846
 20
4.134
 41
11.693
 11
0.0
 21
0.0
 31
1.0
 12
0.0
 22
0.0
 32
1.0
 42
50.0
 43
0.0
 44
0.0
 50
0.0
 71
  0
  0
ENDTAB
  0
TABLE
  2
UCS
  5
6
100
AcDbSymbolTable
 70
  0
  0
ENDTAB
  0
TABLE
  2
APPID
  5
8
100
AcDbSymbolTable
 70
  2
  0
APPID
  5
16
100
AcDbSymbolTableRecord
100
AcDbRegAppTableRecord
  2
ACAD
 70
  0
  0
APPID
  5
1D
100
AcDbSymbolTableRecord
100
AcDbRegAppTableRecord
  2
TCAD
 70
  0
  0
ENDTAB
  0
TABLE
  2
DIMSTYLE
  5
9
100
AcDbSymbolTable
 70
  1
  0
DIMSTYLE
105
18
100
AcDbSymbolTableRecord
100
AcDbDimStyleTableRecord
  2
STANDARD
 70
  0
  3
<>in
  4
<>
  5

  6

  7

 40
1.0
 41
0.125
 42
0.063
 43
0.375
 44
0.125
 45
0.0
 46
0.0
 47
0.0
 48
0.0
 71
  0
 72
  0
 73
  1
 74
  1
 75
  0
 76
  0
 77
  1
 78
  0
140
0.117
141
0.09
142
0.0
143
1.0
144
1.0
145
0.0
146
1.0
147
0.063
170
  0
171
  2
172
  1
173
  0
174
  1
175
  0
176
  7
177
  7
178
  7
270
  5
271
  4
272
  4
273
  2
274
  2
275
  0
280
  0
281
  0
282
  0
283
  1
284
  0
285
  0
286
  0
287
  0
288
  0
340
2F
  0
ENDTAB
  0
TABLE
  2
BLOCK_RECORD
  5
1
100
AcDbSymbolTable
 70
  2
  0
BLOCK_RECORD
  5
A
100
AcDbSymbolTableRecord
100
AcDbBlockTableRecord
  2
*MODEL_SPACE
  0
BLOCK_RECORD
  5
B
100
AcDbSymbolTableRecord
100
AcDbBlockTableRecord
  2
*PAPER_SPACE
  0
BLOCK_RECORD
  5
4C
100
AcDbSymbolTableRecord
100
AcDbBlockTableRecord
  2
*D0
  0
BLOCK_RECORD
  5
5C
100
AcDbSymbolTableRecord
100
AcDbBlockTableRecord
  2
*D1
  0
ENDTAB
  0
ENDSEC
  0
SECTION
  2
BLOCKS
  0
BLOCK
  5
D
100
AcDbEntity
  8
0
100
AcDbBlockBegin
  2
*MODEL_SPACE
 70
  0
 10
0.0
 20
0.0
 30
0.0
  3
*MODEL_SPACE
  1

  0
ENDBLK
  5
E
100
AcDbEntity
  8
0
100
AcDbBlockEnd
  0
BLOCK
  5
F
100
AcDbEntity
 67
  1
  8
0
100
AcDbBlockBegin
  2
*PAPER_SPACE
 70
  0
 10
0.0
 20
0.0
 30
0.0
  3
*PAPER_SPACE
  1

  0
ENDBLK
  5
10
100
AcDbEntity
 67
  1
  8
0
100
AcDbBlockEnd
  0
BLOCK
  5
4D
100
AcDbEntity
  8
0
100
AcDbBlockBegin
  2
*D0
 70
  1
 10
0.0
 20
0.0
 30
0.0
  3
*D0
  1

  0
LINE
  5
4E
100
AcDbEntity
  8
0
  6
CONTINUOUS
 62
  7
100
AcDbLine
 10
4.039
 20
4.295
 30
0.0
 11
3.389
 21
4.295
 31
0.0
  0
LINE
  5
4F
100
AcDbEntity
  8
0
  6
CONTINUOUS
 62
  7
100
AcDbLine
 10
4.277
 20
5.11
 30
0.0
 11
3.389
 21
5.11
 31
0.0
  0
LWPOLYLINE
  5
50
100
AcDbEntity
  8
0
  6
CONTINUOUS
 62
  7
100
AcDbPolyline
 90
        4
 70
  0
 10
3.514
 20
4.42
 10
3.514
 20
4.42
 10
3.514
 20
4.42
 10
3.514
 20
4.585
  0
LWPOLYLINE
  5
51
100
AcDbEntity
  8
0
  6
CONTINUOUS
 62
  7
100
AcDbPolyline
 90
        4
 70
  0
 10
3.514
 20
4.985
 10
3.514
 20
4.985
 10
3.514
 20
4.985
 10
3.514
 20
4.819
  0
LWPOLYLINE
  5
54
100
AcDbEntity
  8
0
  6
CONTINUOUS
 62
  7
100
AcDbPolyline
 90
        4
 70
  0
 10
3.514
 20
4.295
 40
0.0
 41
0.0
 10
3.53
 20
4.42
 40
0.0
 41
0.0
 10
3.497
 20
4.42
 40
0.0
 41
0.0
 10
3.514
 20
4.295
 40
0.0
 41
0.0
  0
HATCH
  5
52
100
AcDbEntity
  8
0
  6
CONTINUOUS
 62
  7
100
AcDbHatch
 10
0.0
 20
0.0
 30
0.0
210
0.0
220
0.0
230
1.0
  2
SOLID
 70
  1
 71
  1
 91
        1
 92
        3
 72
  0
 73
  1
 93
        3
 10
3.5136998374803401
 20
4.2946521005308238
 10
3.52994983748034
 20
4.4196521005308238
 10
3.4974498374803402
 20
4.4196521005308238
 97
        1
330
53
 75
  0
 76
  0
 98
        0
  0
LWPOLYLINE
  5
57
100
AcDbEntity
  8
0
  6
CONTINUOUS
 62
  7
100
AcDbPolyline
 90
        4
 70
  0
 10
3.514
 20
5.11
 40
0.0
 41
0.0
 10
3.497
 20
4.985
 40
0.0
 41
0.0
 10
3.53
 20
4.985
 40
0.0
 41
0.0
 10
3.514
 20
5.11
 40
0.0
 41
0.0
  0
HATCH
  5
55
100
AcDbEntity
  8
0
  6
CONTINUOUS
 62
  7
100
AcDbHatch
 10
0.0
 20
0.0
 30
0.0
210
0.0
220
0.0
230
1.0
  2
SOLID
 70
  1
 71
  1
 91
        1
 92
        3
 72
  0
 73
  1
 93
        3
 10
3.5136998374803401
 20
5.1096793110741183
 10
3.4974498374803402
 20
4.9846793110741183
 10
3.52994983748034
 20
4.9846793110741183
 97
        1
330
56
 75
  0
 76
  0
 98
        0
  0
TEXT
  5
58
100
AcDbEntity
  8
0
  6
CONTINUOUS
 62
  7
100
AcDbText
 10
3.245
 20
4.644
 30
0.0
 40
0.117
  1
13/16
  7
_TCW_TXTSTY_1
 72
  1
 11
3.445
 21
4.702
 31
0.0
100
AcDbText
 73
  2
  0
TEXT
  5
59
100
AcDbEntity
  8
0
  6
CONTINUOUS
 62
  7
100
AcDbText
 10
3.645
 20
4.644
 30
0.0
 40
0.117
  1
in
  7
_TCW_TXTSTY_1
 11
3.645
 21
4.76
 31
0.0
100
AcDbText
 73
  3
  0
ENDBLK
  5
5A
100
AcDbEntity
  8
0
100
AcDbBlockEnd
  0
BLOCK
  5
5D
100
AcDbEntity
  8
0
100
AcDbBlockBegin
  2
*D1
 70
  1
 10
0.0
 20
0.0
 30
0.0
  3
*D1
  1

  0
LINE
  5
5E
100
AcDbEntity
  8
0
  6
CONTINUOUS
 62
  7
100
AcDbLine
 10
4.101
 20
5.079
 30
0.0
 11
4.101
 21
5.845
 31
0.0
  0
LINE
  5
5F
100
AcDbEntity
  8
0
  6
CONTINUOUS
 62
  7
100
AcDbLine
 10
6.601
 20
4.467
 30
0.0
 11
6.601
 21
5.845
 31
0.0
  0
LWPOLYLINE
  5
60
100
AcDbEntity
  8
0
  6
CONTINUOUS
 62
  7
100
AcDbPolyline
 90
        4
 70
  0
 10
4.226
 20
5.72
 10
4.226
 20
5.72
 10
4.226
 20
5.72
 10
5.351
 20
5.72
  0
LWPOLYLINE
  5
61
100
AcDbEntity
  8
0
  6
CONTINUOUS
 62
  7
100
AcDbPolyline
 90
        4
 70
  0
 10
6.476
 20
5.72
 10
6.476
 20
5.72
 10
6.476
 20
5.72
 10
5.351
 20
5.72
  0
LWPOLYLINE
  5
64
100
AcDbEntity
  8
0
  6
CONTINUOUS
 62
  7
100
AcDbPolyline
 90
        4
 70
  0
 10
4.101
 20
5.72
 40
0.0
 41
0.0
 10
4.226
 20
5.704
 40
0.0
 41
0.0
 10
4.226
 20
5.736
 40
0.0
 41
0.0
 10
4.101
 20
5.72
 40
0.0
 41
0.0
  0
HATCH
  5
62
100
AcDbEntity
  8
0
  6
CONTINUOUS
 62
  7
100
AcDbHatch
 10
0.0
 20
0.0
 30
0.0
210
0.0
220
0.0
230
1.0
  2
SOLID
 70
  1
 71
  1
 91
        1
 92
        3
 72
  0
 73
  1
 93
        3
 10
4.1013066899427413
 20
5.720075224893133
 10
4.2263066899427413
 20
5.7038252248931327
 10
4.2263066899427413
 20
5.7363252248931333
 97
        1
330
63
 75
  0
 76
  0
 98
        0
  0
LWPOLYLINE
  5
67
100
AcDbEntity
  8
0
  6
CONTINUOUS
 62
  7
100
AcDbPolyline
 90
        4
 70
  0
 10
6.601
 20
5.72
 40
0.0
 41
0.0
 10
6.476
 20
5.736
 40
0.0
 41
0.0
 10
6.476
 20
5.704
 40
0.0
 41
0.0
 10
6.601
 20
5.72
 40
0.0
 41
0.0
  0
HATCH
  5
65
100
AcDbEntity
  8
0
  6
CONTINUOUS
 62
  7
100
AcDbHatch
 10
0.0
 20
0.0
 30
0.0
210
0.0
220
0.0
230
1.0
  2
SOLID
 70
  1
 71
  1
 91
        1
 92
        3
 72
  0
 73
  1
 93
        3
 10
6.6013066899427413
 20
5.720075224893133
 10
6.4763066899427413
 20
5.7363252248931333
 10
6.4763066899427413
 20
5.7038252248931327
 97
        1
330
66
 75
  0
 76
  0
 98
        0
  0
TEXT
  5
68
100
AcDbEntity
  8
0
  6
CONTINUOUS
 62
  7
100
AcDbText
 10
5.105
 20
5.821
 30
0.0
 40
0.117
  1
2 1/2
  7
_TCW_TXTSTY_1
 72
  1
 11
5.283
 21
5.88
 31
0.0
100
AcDbText
 73
  2
  0
TEXT
  5
69
100
AcDbEntity
  8
0
  6
CONTINUOUS
 62
  7
100
AcDbText
 10
5.461
 20
5.821
 30
0.0
 40
0.117
  1
in
  7
_TCW_TXTSTY_1
 11
5.461
 21
5.938
 31
0.0
100
AcDbText
 73
  3
  0
ENDBLK
  5
6A
100
AcDbEntity
  8
0
100
AcDbBlockEnd
  0
ENDSEC
  0
SECTION
  2
ENTITIES
  0
VIEWPORT
  5
46
100
AcDbEntity
 67
  1
  8
0
100
AcDbViewport
 10
5.301
 20
4.515
 30
0.0
 40
11.017
 41
5.989
 68
  1
 69
  1
1001
ACAD
1000
MVIEW
1002
{
1070
 16
1010
0.0
1020
0.0
1030
0.0
1010
0.0
1020
0.0
1030
1.0
1040
0.0
1040
5.989
1040
5.301
1040
4.515
1040
50.0
1040
0.0
1040
0.0
1070
  0
1070
100
1070
  0
1070
  1
1070
  0
1070
  0
1070
  0
1070
  0
1040
0.0
1040
0.0
1040
0.0
1040
0.5
1040
0.5
1040
0.5
1040
0.5
1070
  0
1002
{
1002
}
1002
}
  0
TEXT
  5
47
100
AcDbEntity
 67
  1
  8
0
  6
CONTINUOUS
 62
  7
100
AcDbText
 10
4.629
 20
2.345
 30
0.0
 40
0.133
  1
Casing 1147
  7
_TCW_TXTSTY_1
 11
4.629
 21
2.478
 31
0.0
100
AcDbText
 73
  3
1001
TCAD
1000
TCW40_TEXT
1002
{
1000
Times New Roman
1070
  0
1070
257
1002
}
  0
MTEXT
  5
49
100
AcDbEntity
 67
  1
  8
0
  6
CONTINUOUS
 62
  7
100
AcDbMText
 10
4.629
 20
2.07
 30
0.0
 40
0.087
 41
1.35
 71
  1
 72
  1
  1
{Saroyan Lumber Co.\P(800) 624-9309}
  7
_TCW_TXTSTY_2
1001
TCAD
1000
TCW_REFPOINT
1002
{
1010
4.629
1020
1.96
1030
0.0
1002
}
1001
TCAD
1000
TCW40_TEXT
1002
{
1000
Times New Roman
1070
  0
1070
257
1002
}
  0
TEXT
  5
4A
100
AcDbEntity
 67
  1
  8
0
  6
CONTINUOUS
 62
  7
100
AcDbText
 10
4.628
 20
2.164
 30
0.0
 40
0.1
  1
13/16 x 2-1/2
  7
_TCW_TXTSTY_1
 11
4.628
 21
2.264
 31
0.0
100
AcDbText
 73
  3
1001
TCAD
1000
TCW_REFPOINT
1002
{
1010
4.628
1020
2.298
1030
0.0
1002
}
1001
TCAD
1000
TCW40_TEXT
1002
{
1000
Times New Roman
1070
  0
1070
257
1002
}
  0
LWPOLYLINE
  5
4B
100
AcDbEntity
 67
  1
  8
0
  6
CONTINUOUS
 62
  7
100
AcDbPolyline
 90
       22
 70
  1
 43
0.014
 10
6.459
 20
4.508
 42
-0.039
 10
6.368
 20
4.635
 42
0.756
 10
6.1
 20
4.559
 10
6.098
 20
4.538
 10
6.049
 20
4.538
 10
6.049
 20
4.588
 10
5.549
 20
4.588
 42
1.396
 10
5.304
 20
4.673
 10
5.304
 20
4.746
 42
-0.132
 10
4.958
 20
5.013
 42
0.584
 10
4.545
 20
4.956
 10
4.545
 20
5.057
 42
0.414
 10
4.494
 20
5.107
 10
4.192
 20
5.107
 42
0.414
 10
4.101
 20
5.017
 10
4.101
 20
4.295
 10
4.65
 20
4.295
 42
-0.296
 10
4.729
 20
4.346
 10
6.089
 20
4.346
 42
-0.377
 10
6.148
 20
4.295
 10
6.601
 20
4.295
 10
6.601
 20
4.405
 42
-0.117
  0
DIMENSION
  5
5B
100
AcDbEntity
 67
  1
  8
0
  6
CONTINUOUS
 62
  7
100
AcDbDimension
  2
*D0
 10
3.514
 20
5.11
 30
0.0
 11
3.514
 21
4.702
 31
0.0
  1
<>
  3
STANDARD
100
AcDbAlignedDimension
 13
4.101
 23
4.295
 33
0.0
 14
4.339
 24
5.11
 34
0.0
 50
90.0
100
AcDbRotatedDimension
1001
ACAD
1000
DSTYLE
1002
{
1002
}
  0
DIMENSION
  5
6B
100
AcDbEntity
 67
  1
  8
0
  6
CONTINUOUS
 62
  7
100
AcDbDimension
  2
*D1
 10
6.601
 20
5.72
 30
0.0
 11
5.351
 21
5.88
 31
0.0
  1
<>
  3
STANDARD
100
AcDbAlignedDimension
 13
4.101
 23
5.017
 33
0.0
 14
6.601
 24
4.405
 34
0.0
100
AcDbRotatedDimension
1001
ACAD
1000
DSTYLE
1002
{
1002
}
  0
TEXT
  5
6D
100
AcDbEntity
 67
  1
  8
0
  6
CONTINUOUS
 62
  7
100
AcDbText
 10
4.142
 20
4.411
 30
0.0
 40
0.059
  1
© 2003 The Premium Series
  7
_TCW_TXTSTY_3
 11
4.142
 21
4.47
 31
0.0
100
AcDbText
 73
  3
1001
TCAD
1000
TCW40_TEXT
1002
{
1000
AvantGarde Bk BT
1070
  1
1070
257
1002
}
  0
LWPOLYLINE
  5
30
100
AcDbEntity
  8
0
  6
CONTINUOUS
 62
 30
100
AcDbPolyline
 90
        6
 70
  0
 10
5.209
 20
5.629
 10
5.184
 20
5.654
 10
5.158
 20
5.678
 10
5.129
 20
5.699
 10
5.099
 20
5.717
 10
5.067
 20
5.732
  0
LINE
  5
31
100
AcDbEntity
  8
0
  6
CONTINUOUS
 62
 30
100
AcDbLine
 10
5.52
 20
5.842
 30
0.0
 11
5.067
 21
5.842
 31
0.0
  0
LINE
  5
32
100
AcDbEntity
  8
0
  6
CONTINUOUS
 62
 30
100
AcDbLine
 10
5.067
 20
5.842
 30
0.0
 11
5.067
 21
5.732
 31
0.0
  0
LWPOLYLINE
  5
33
100
AcDbEntity
  8
0
  6
CONTINUOUS
 62
 30
100
AcDbPolyline
 90
       15
 70
  0
 10
5.52
 20
5.842
 10
5.521
 20
5.836
 10
5.523
 20
5.831
 10
5.525
 20
5.825
 10
5.528
 20
5.82
 10
5.532
 20
5.814
 10
5.536
 20
5.81
 10
5.54
 20
5.806
 10
5.545
 20
5.802
 10
5.55
 20
5.799
 10
5.555
 20
5.796
 10
5.561
 20
5.794
 10
5.567
 20
5.792
 10
5.573
 20
5.791
 10
5.579
 20
5.791
  0
LINE
  5
34
100
AcDbEntity
  8
0
  6
CONTINUOUS
 62
 30
100
AcDbLine
 10
6.939
 20
5.791
 30
0.0
 11
5.579
 21
5.791
 31
0.0
  0
LWPOLYLINE
  5
35
100
AcDbEntity
  8
0
  6
CONTINUOUS
 62
 30
100
AcDbPolyline
 90
       13
 70
  0
 10
6.939
 20
5.791
 10
6.947
 20
5.791
 10
6.955
 20
5.792
 10
6.963
 20
5.794
 10
6.971
 20
5.797
 10
6.979
 20
5.801
 10
6.986
 20
5.805
 10
6.993
 20
5.81
 10
6.999
 20
5.815
 10
7.005
 20
5.821
 10
7.01
 20
5.828
 10
7.014
 20
5.835
 10
7.018
 20
5.842
  0
LINE
  5
36
100
AcDbEntity
  8
0
  6
CONTINUOUS
 62
 30
100
AcDbLine
 10
7.567
 20
5.12
 30
0.0
 11
7.567
 21
5.842
 31
0.0
  0
LINE
  5
37
100
AcDbEntity
  8
0
  6
CONTINUOUS
 62
 30
100
AcDbLine
 10
7.567
 20
5.842
 30
0.0
 11
7.018
 21
5.842
 31
0.0
  0
LWPOLYLINE
  5
38
100
AcDbEntity
  8
0
  6
CONTINUOUS
 62
 30
100
AcDbPolyline
 90
       16
 70
  0
 10
7.476
 20
5.03
 10
7.486
 20
5.03
 10
7.495
 20
5.032
 10
7.504
 20
5.034
 10
7.513
 20
5.038
 10
7.521
 20
5.042
 10
7.529
 20
5.047
 10
7.537
 20
5.053
 10
7.543
 20
5.06
 10
7.549
 20
5.067
 10
7.555
 20
5.075
 10
7.559
 20
5.083
 10
7.562
 20
5.092
 10
7.565
 20
5.101
 10
7.566
 20
5.111
 10
7.567
 20
5.12
  0
LINE
  5
39
100
AcDbEntity
  8
0
  6
CONTINUOUS
 62
 30
100
AcDbLine
 10
7.173
 20
5.03
 30
0.0
 11
7.476
 21
5.03
 31
0.0
  0
LWPOLYLINE
  5
3A
100
AcDbEntity
  8
0
  6
CONTINUOUS
 62
 30
100
AcDbPolyline
 90
       16
 70
  0
 10
7.123
 20
5.08
 10
7.123
 20
5.075
 10
7.124
 20
5.07
 10
7.126
 20
5.065
 10
7.128
 20
5.06
 10
7.13
 20
5.055
 10
7.133
 20
5.051
 10
7.136
 20
5.046
 10
7.14
 20
5.043
 10
7.144
 20
5.039
 10
7.148
 20
5.037
 10
7.153
 20
5.034
 10
7.158
 20
5.032
 10
7.163
 20
5.031
 10
7.168
 20
5.03
 10
7.173
 20
5.03
  0
LINE
  5
3B
100
AcDbEntity
  8
0
  6
CONTINUOUS
 62
 30
100
AcDbLine
 10
7.123
 20
5.181
 30
0.0
 11
7.123
 21
5.08
 31
0.0
  0
LWPOLYLINE
  5
3C
100
AcDbEntity
  8
0
  6
CONTINUOUS
 62
 30
100
AcDbPolyline
 90
       22
 70
  0
 10
6.71
 20
5.124
 10
6.726
 20
5.106
 10
6.743
 20
5.089
 10
6.762
 20
5.074
 10
6.782
 20
5.061
 10
6.804
 20
5.05
 10
6.826
 20
5.042
 10
6.85
 20
5.035
 10
6.873
 20
5.031
 10
6.897
 20
5.03
 10
6.922
 20
5.031
 10
6.945
 20
5.034
 10
6.969
 20
5.04
 10
6.991
 20
5.048
 10
7.013
 20
5.058
 10
7.034
 20
5.07
 10
7.053
 20
5.085
 10
7.071
 20
5.101
 10
7.087
 20
5.119
 10
7.101
 20
5.138
 10
7.113
 20
5.159
 10
7.123
 20
5.181
  0
LINE
  5
3D
100
AcDbEntity
  8
0
  6
CONTINUOUS
 62
 30
100
AcDbLine
 10
6.364
 20
5.464
 30
0.0
 11
6.364
 21
5.391
 31
0.0
  0
LINE
  5
3E
100
AcDbEntity
  8
0
  6
CONTINUOUS
 62
 30
100
AcDbLine
 10
5.568
 20
5.578
 30
0.0
 11
5.57
 21
5.599
 31
0.0
  0
LINE
  5
3F
100
AcDbEntity
  8
0
  6
CONTINUOUS
 62
 30
100
AcDbLine
 10
5.57
 20
5.599
 30
0.0
 11
5.619
 21
5.599
 31
0.0
  0
LINE
  5
40
100
AcDbEntity
  8
0
  6
CONTINUOUS
 62
 30
100
AcDbLine
 10
5.619
 20
5.599
 30
0.0
 11
5.619
 21
5.549
 31
0.0
  0
LWPOLYLINE
  5
41
100
AcDbEntity
  8
0
  6
CONTINUOUS
 62
 30
100
AcDbPolyline
 90
       26
 70
  0
 10
5.3
 20
5.502
 10
5.309
 20
5.49
 10
5.319
 20
5.479
 10
5.33
 20
5.468
 10
5.341
 20
5.459
 10
5.354
 20
5.451
 10
5.368
 20
5.445
 10
5.382
 20
5.44
 10
5.396
 20
5.436
 10
5.411
 20
5.434
 10
5.426
 20
5.434
 10
5.441
 20
5.435
 10
5.456
 20
5.437
 10
5.47
 20
5.441
 10
5.484
 20
5.447
 10
5.497
 20
5.454
 10
5.51
 20
5.462
 10
5.521
 20
5.472
 10
5.532
 20
5.482
 10
5.541
 20
5.494
 10
5.549
 20
5.507
 10
5.556
 20
5.52
 10
5.561
 20
5.534
 10
5.565
 20
5.549
 10
5.568
 20
5.563
 10
5.568
 20
5.578
  0
LWPOLYLINE
  5
42
100
AcDbEntity
  8
0
  6
CONTINUOUS
 62
 30
100
AcDbPolyline
 90
        3
 70
  0
 10
5.3
 20
5.502
 10
5.257
 20
5.567
 10
5.209
 20
5.629
  0
LINE
  5
43
100
AcDbEntity
  8
0
  6
CONTINUOUS
 62
 30
100
AcDbLine
 10
5.619
 20
5.549
 30
0.0
 11
6.119
 21
5.549
 31
0.0
  0
LWPOLYLINE
  5
44
100
AcDbEntity
  8
0
  6
CONTINUOUS
 62
 30
100
AcDbPolyline
 90
       38
 70
  0
 10
6.119
 20
5.549
 10
6.111
 20
5.538
 10
6.104
 20
5.526
 10
6.099
 20
5.513
 10
6.095
 20
5.499
 10
6.092
 20
5.485
 10
6.09
 20
5.471
 10
6.091
 20
5.457
 10
6.092
 20
5.443
 10
6.095
 20
5.43
 10
6.099
 20
5.416
 10
6.105
 20
5.404
 10
6.112
 20
5.391
 10
6.12
 20
5.38
 10
6.129
 20
5.369
 10
6.14
 20
5.36
 10
6.151
 20
5.352
 10
6.163
 20
5.344
 10
6.176
 20
5.338
 10
6.189
 20
5.334
 10
6.203
 20
5.331
 10
6.217
 20
5.329
 10
6.231
 20
5.328
 10
6.245
 20
5.329
 10
6.258
 20
5.332
 10
6.272
 20
5.336
 10
6.285
 20
5.341
 10
6.297
 20
5.348
 10
6.309
 20
5.356
 10
6.32
 20
5.365
 10
6.33
 20
5.375
 10
6.338
 20
5.386
 10
6.346
 20
5.397
 10
6.352
 20
5.41
 10
6.357
 20
5.423
 10
6.361
 20
5.437
 10
6.363
 20
5.45
 10
6.364
 20
5.464
  0
LWPOLYLINE
  5
45
100
AcDbEntity
  8
0
  6
CONTINUOUS
 62
 30
100
AcDbPolyline
 90
        7
 70
  0
 10
6.71
 20
5.124
 10
6.663
 20
5.18
 10
6.611
 20
5.233
 10
6.555
 20
5.28
 10
6.495
 20
5.323
 10
6.431
 20
5.36
 10
6.364
 20
5.391
  0
ENDSEC
  0
SECTION
  2
OBJECTS
  0
DICTIONARY
  5
19
100
AcDbDictionary
  3
ACAD_GROUP
350
1A
  3
ACAD_MLINESTYLE
350
1B
  0
DICTIONARY
  5
1A
102
{ACAD_REACTORS
330
19
102
}
100
AcDbDictionary
  0
DICTIONARY
  5
1B
102
{ACAD_REACTORS
330
19
102
}
100
AcDbDictionary
  3
STANDARD
350
1C
  0
MLINESTYLE
  5
1C
100
AcDbMlineStyle
  2
STANDARD
 70
  0
  3

 62
256
 51
90.0
 52
90.0
 71
  3
 49
0.25
 62
  7
  6
BYLAYER
 49
0.0
 62
  7
  6
BYLAYER
 49
-0.25
 62
  7
  6
BYLAYER
  0
ENDSEC
  0
EOF
