  0
SECTION
  2
HEADER
  9
$ACADVER
  1
AC1015
  9
$ACADMAINTVER
 70
           6
  9
$DWGCODEPAGE
  3
ANSI_1252
  9
$INSBASE
 10
0.0
 20
0.0
 30
0.0
  9
$EXTMIN
 10
1.000000000000E+20
 20
1.000000000000E+20
 30
1.000000000000E+20
  9
$EXTMAX
 10
-1.000000000000E+20
 20
-1.000000000000E+20
 30
-1.000000000000E+20
  9
$LIMMIN
 10
1.108313
 20
-6.619597
  9
$LIMMAX
 10
15.108313
 20
5.380403
  9
$ORTHOMODE
 70
           0
  9
$REGENMODE
 70
           1
  9
$FILLMODE
 70
           1
  9
$QTEXTMODE
 70
           0
  9
$MIRRTEXT
 70
           1
  9
$LTSCALE
 40
1.0
  9
$ATTMODE
 70
           1
  9
$TEXTSIZE
 40
0.5
  9
$TRACEWID
 40
1.0
  9
$TEXTSTYLE
  7
STANDARD
  9
$CLAYER
  8
0
  9
$CELTYPE
  6
Continuous
  9
$CECOLOR
 62
          30
  9
$CELTSCALE
 40
1.0
  9
$DISPSILH
 70
           0
  9
$DIMSCALE
 40
1.0
  9
$DIMASZ
 40
0.125
  9
$DIMEXO
 40
0.0625
  9
$DIMDLI
 40
0.375
  9
$DIMRND
 40
0.0001
  9
$DIMDLE
 40
0.0
  9
$DIMEXE
 40
0.125
  9
$DIMTP
 40
0.0
  9
$DIMTM
 40
0.0
  9
$DIMTXT
 40
0.11666666664
  9
$DIMCEN
 40
0.09
  9
$DIMTSZ
 40
0.0
  9
$DIMTOL
 70
           0
  9
$DIMLIM
 70
           0
  9
$DIMTIH
 70
           1
  9
$DIMTOH
 70
           1
  9
$DIMSE1
 70
           0
  9
$DIMSE2
 70
           0
  9
$DIMTAD
 70
           1
  9
$DIMZIN
 70
           0
  9
$DIMBLK
  1

  9
$DIMASO
 70
           0
  9
$DIMSHO
 70
           1
  9
$DIMPOST
  1
<>in
  9
$DIMAPOST
  1
<>
  9
$DIMALT
 70
           0
  9
$DIMALTD
 70
           2
  9
$DIMALTF
 40
1.0
  9
$DIMLFAC
 40
1.0
  9
$DIMTOFL
 70
           1
  9
$DIMTVP
 40
0.0
  9
$DIMTIX
 70
           1
  9
$DIMSOXD
 70
           0
  9
$DIMSAH
 70
           0
  9
$DIMBLK1
  1

  9
$DIMBLK2
  1

  9
$DIMSTYLE
  2
STANDARD
  9
$DIMCLRD
 70
           7
  9
$DIMCLRE
 70
           7
  9
$DIMCLRT
 70
           7
  9
$DIMTFAC
 40
1.0
  9
$DIMGAP
 40
0.0625
  9
$DIMJUST
 70
           0
  9
$DIMSD1
 70
           0
  9
$DIMSD2
 70
           0
  9
$DIMTOLJ
 70
           1
  9
$DIMTZIN
 70
           0
  9
$DIMALTZ
 70
           0
  9
$DIMALTTZ
 70
           0
  9
$DIMUPT
 70
           0
  9
$DIMDEC
 70
           4
  9
$DIMTDEC
 70
           4
  9
$DIMALTU
 70
           2
  9
$DIMALTTD
 70
           2
  9
$DIMTXSTY
  7
STANDARD
  9
$DIMAUNIT
 70
           0
  9
$DIMADEC
 70
           4
  9
$DIMALTRND
 40
0.0
  9
$DIMAZIN
 70
           0
  9
$DIMDSEP
 70
           0
  9
$DIMATFIT
 70
           0
  9
$DIMFRAC
 70
           0
  9
$DIMLDRBLK
  1

  9
$DIMLUNIT
 70
           5
  9
$DIMLWD
 70
           0
  9
$DIMLWE
 70
           0
  9
$DIMTMOVE
 70
           0
  9
$LUNITS
 70
           2
  9
$LUPREC
 70
           2
  9
$SKETCHINC
 40
1.0
  9
$FILLETRAD
 40
1.0
  9
$AUNITS
 70
           0
  9
$AUPREC
 70
           2
  9
$MENU
  1
acad
  9
$ELEVATION
 40
0.0
  9
$PELEVATION
 40
0.0
  9
$THICKNESS
 40
0.0
  9
$LIMCHECK
 70
           0
  9
$CHAMFERA
 40
0.0
  9
$CHAMFERB
 40
0.0
  9
$CHAMFERC
 40
0.0
  9
$CHAMFERD
 40
0.0
  9
$SKPOLY
 70
           0
  9
$TDCREATE
 40
0.000000000
  9
$TDUCREATE
 40
0.000000000
  9
$TDUPDATE
 40
0.000000000
  9
$TDUUPDATE
 40
0.000000000
  9
$TDINDWG
 40
0.0000000000
  9
$TDUSRTIMER
 40
0.0000000000
  9
$USRTIMER
 70
           1
  9
$ANGBASE
 50
0.0
  9
$ANGDIR
 70
           0
  9
$PDMODE
 70
           0
  9
$PDSIZE
 40
0.0
  9
$PLINEWID
 40
0.0
  9
$SPLFRAME
 70
           0
  9
$SPLINETYPE
 70
           6
  9
$SPLINESEGS
 70
          20
  9
$HANDSEED
  5
76
  9
$SURFTAB1
 70
           6
  9
$SURFTAB2
 70
           6
  9
$SURFTYPE
 70
           6
  9
$SURFU
 70
           6
  9
$SURFV
 70
           6
  9
$UCSBASE
  2

  9
$UCSNAME
  2

  9
$UCSORG
 10
0.0
 20
0.0
 30
0.0
  9
$UCSXDIR
 10
1.0
 20
0.0
 30
0.0
  9
$UCSYDIR
 10
0.0
 20
1.0
 30
0.0
  9
$UCSORTHOREF
  2

  9
$UCSORTHOVIEW
 70
           0
  9
$UCSORGTOP
 10
0.0
 20
0.0
 30
0.0
  9
$UCSORGBOTTOM
 10
0.0
 20
0.0
 30
0.0
  9
$UCSORGLEFT
 10
0.0
 20
0.0
 30
0.0
  9
$UCSORGRIGHT
 10
0.0
 20
0.0
 30
0.0
  9
$UCSORGFRONT
 10
0.0
 20
0.0
 30
0.0
  9
$UCSORGBACK
 10
0.0
 20
0.0
 30
0.0
  9
$PUCSBASE
  2

  9
$PUCSNAME
  2

  9
$PUCSORG
 10
0.0
 20
0.0
 30
0.0
  9
$PUCSXDIR
 10
1.0
 20
0.0
 30
0.0
  9
$PUCSYDIR
 10
0.0
 20
1.0
 30
0.0
  9
$PUCSORTHOREF
  2

  9
$PUCSORTHOVIEW
 70
           0
  9
$PUCSORGTOP
 10
0.0
 20
0.0
 30
0.0
  9
$PUCSORGBOTTOM
 10
0.0
 20
0.0
 30
0.0
  9
$PUCSORGLEFT
 10
0.0
 20
0.0
 30
0.0
  9
$PUCSORGRIGHT
 10
0.0
 20
0.0
 30
0.0
  9
$PUCSORGFRONT
 10
0.0
 20
0.0
 30
0.0
  9
$PUCSORGBACK
 10
0.0
 20
0.0
 30
0.0
  9
$USERI1
 70
           0
  9
$USERI2
 70
           0
  9
$USERI3
 70
           0
  9
$USERI4
 70
           0
  9
$USERI5
 70
           0
  9
$USERR1
 40
0.0
  9
$USERR2
 40
0.0
  9
$USERR3
 40
0.0
  9
$USERR4
 40
0.0
  9
$USERR5
 40
0.0
  9
$WORLDVIEW
 70
           1
  9
$SHADEDGE
 70
           3
  9
$SHADEDIF
 70
          70
  9
$TILEMODE
 70
           0
  9
$MAXACTVP
 70
          16
  9
$PINSBASE
 10
0.0
 20
0.0
 30
0.0
  9
$PLIMCHECK
 70
           0
  9
$PEXTMIN
 10
1.25
 20
-1.25
 30
0.0
  9
$PEXTMAX
 10
9.75
 20
9.75
 30
0.0
  9
$PLIMMIN
 10
1.25
 20
-1.25
  9
$PLIMMAX
 10
9.75
 20
9.75
  9
$UNITMODE
 70
           0
  9
$VISRETAIN
 70
           0
  9
$PLINEGEN
 70
           1
  9
$PSLTSCALE
 70
           1
  9
$TREEDEPTH
 70
        3020
  9
$CMLSTYLE
  2
STANDARD
  9
$CMLJUST
 70
           0
  9
$CMLSCALE
 40
1.0
  9
$PROXYGRAPHICS
 70
           0
  9
$MEASUREMENT
 70
           0
  9
$CELWEIGHT
370
           0
  9
$ENDCAPS
280
           0
  9
$JOINSTYLE
280
           0
  9
$LWDISPLAY
290
           0
  9
$INSUNITS
 70
           0
  9
$HYPERLINKBASE
  1

  9
$STYLESHEET
  1

  9
$XEDIT
290
           1
  9
$CEPSNTYPE
380
           0
  9
$PSTYLEMODE
290
           1
  9
$FINGERPRINTGUID
  2

  9
$VERSIONGUID
  2

  9
$EXTNAMES
290
           1
  9
$PSVPSCALE
 40
0.0
  0
ENDSEC
  0
SECTION
  2
CLASSES
  0
CLASS
  1
LWPOLYLINE
  2
AcDbPolyline
  3
AutoCAD 2000
 90
        0
280
           0
281
           1
  0
CLASS
  1
IMAGE
  2
AcDbRasterImage
  3
ISM
 90
    32895
280
           0
281
           1
  0
CLASS
  1
OLE2FRAME
  2
AcDbOle2Frame
  3
AutoCAD 2000
 90
    32768
280
           0
281
           1
  0
CLASS
  1
HATCH
  2
AcDbHatch
  3
AutoCAD 2000
 90
        0
280
           0
281
           1
  0
CLASS
  1
DICTIONARYVAR
  2
AcDbDictionaryVar
  3
AutoCAD 2000
 90
    32768
280
           0
281
           0
  0
CLASS
  1
RASTERVARIABLES
  2
AcDbRasterVariables
  3
ISM
 90
    32768
280
           0
281
           0
  0
CLASS
  1
IMAGEDEF
  2
AcDbRasterImageDef
  3
ISM
 90
    32768
280
           0
281
           0
  0
CLASS
  1
IMAGEDEF_REACTOR
  2
AcDbRasterImageDefReactor
  3
ISM
 90
    32769
280
           0
281
           0
  0
CLASS
  1
IDBUFFER
  2
AcDbIdBuffer
  3
AutoCAD 2000
 90
    32768
280
           0
281
           0
  0
CLASS
  1
SPATIAL_FILTER
  2
AcDbSpatialFilter
  3
AutoCAD 2000
 90
    32768
280
           0
281
           0
  0
CLASS
  1
XRECORD
  2
AcDbXrecord
  3
AutoCAD 2000
 90
    32768
280
           0
281
           0
  0
CLASS
  1
SORTENTSTABLE
  2
AcDbSortentsTable
  3
AutoCAD 2000
 90
    32768
280
           0
281
           0
  0
CLASS
  1
LAYER_INDEX
  2
AcDbLayerIndex
  3
AutoCAD 2000
 90
    32768
280
           0
281
           0
  0
CLASS
  1
SPATIAL_INDEX
  2
AcDbSpatialIndex
  3
AutoCAD 2000
 90
    32768
280
           0
281
           0
  0
CLASS
  1
OBJECT_PTR
  2
CAseDLPNTableRecord
  3
"ASE-LPNTableRecord"
 90
    32769
280
           0
281
           0
  0
CLASS
  1
LAYOUT
  2
AcDbLayout
  3
AutoCAD 2000
 90
        0
280
           0
281
           0
  0
CLASS
  1
PLOTSETTINGS
  2
AcDbPlotSettings
  3
AutoCAD 2000
 90
    32768
280
           0
281
           0
  0
CLASS
  1
ACDBDICTIONARYWDFLT
  2
AcDbDictionaryWithDefault
  3
AutoCAD 2000
 90
        0
280
           0
281
           0
  0
CLASS
  1
ACDBPLACEHOLDER
  2
AcDbPlaceHolder
  3
AutoCAD 2000
 90
        0
280
           0
281
           0
  0
ENDSEC
  0
SECTION
  2
TABLES
  0
TABLE
  2
VPORT
  5
7
100
AcDbSymbolTable
 70
           1
  0
VPORT
  5
15
100
AcDbSymbolTableRecord
100
AcDbViewportTableRecord
  2
*ACTIVE
 70
           0
 10
0.0
 20
0.0
 11
1.0
 21
1.0
 12
5.091036181499
 22
4.942834799444
 13
0.0
 23
0.0
 14
0.5
 24
0.5
 15
0.5
 25
0.5
 16
0.0
 26
0.0
 36
1.0
 17
0.0
 27
0.0
 37
0.0
 40
17.455137225143
 41
1.455324357405
 42
50.0
 43
0.0
 44
0.0
 50
0.0
 51
0.0
 71
           0
 72
         100
 73
           1
 74
           1
 75
           0
 76
           0
 77
           0
 78
           0
281
           0
 65
           0
110
0.0
120
0.0
130
0.0
111
1.0
121
0.0
131
0.0
112
0.0
122
1.0
132
0.0
345
0
346
0
 79
           0
146
0.0
  0
ENDTAB
  0
TABLE
  2
LTYPE
  5
4
100
AcDbSymbolTable
 70
          15
  0
LTYPE
  5
11
100
AcDbSymbolTableRecord
100
AcDbLinetypeTableRecord
  2
ByBlock
 70
          64
  3

 72
          65
 73
           0
 40
0.0
  0
LTYPE
  5
12
100
AcDbSymbolTableRecord
100
AcDbLinetypeTableRecord
  2
ByLayer
 70
          64
  3

 72
          65
 73
           0
 40
0.0
  0
LTYPE
  5
13
100
AcDbSymbolTableRecord
100
AcDbLinetypeTableRecord
  2
Continuous
 70
          64
  3
Solid line
 72
          65
 73
           0
 40
0.0
  0
LTYPE
  5
24
100
AcDbSymbolTableRecord
100
AcDbLinetypeTableRecord
  2
BORDER
 70
           0
  3
BORDER
 72
          65
 73
           6
 40
1.75
 49
0.5
 74
           0
 49
-0.25
 74
           0
 49
0.5
 74
           0
 49
-0.25
 74
           0
 49
0.0
 74
           0
 49
-0.25
 74
           0
  0
LTYPE
  5
25
100
AcDbSymbolTableRecord
100
AcDbLinetypeTableRecord
  2
CENTER
 70
           0
  3
CENTER
 72
          65
 73
           4
 40
2.0
 49
1.25
 74
           0
 49
-0.25
 74
           0
 49
0.25
 74
           0
 49
-0.25
 74
           0
  0
LTYPE
  5
26
100
AcDbSymbolTableRecord
100
AcDbLinetypeTableRecord
  2
DASHDOT
 70
           0
  3
DASHDOT
 72
          65
 73
           4
 40
1.0
 49
0.5
 74
           0
 49
-0.25
 74
           0
 49
0.0
 74
           0
 49
-0.25
 74
           0
  0
LTYPE
  5
27
100
AcDbSymbolTableRecord
100
AcDbLinetypeTableRecord
  2
DASHED
 70
           0
  3
DASHED
 72
          65
 73
           2
 40
0.75
 49
0.5
 74
           0
 49
-0.25
 74
           0
  0
LTYPE
  5
28
100
AcDbSymbolTableRecord
100
AcDbLinetypeTableRecord
  2
DIVIDE
 70
           0
  3
DIVIDE
 72
          65
 73
           6
 40
1.25
 49
0.5
 74
           0
 49
-0.25
 74
           0
 49
0.0
 74
           0
 49
-0.25
 74
           0
 49
0.0
 74
           0
 49
-0.25
 74
           0
  0
LTYPE
  5
29
100
AcDbSymbolTableRecord
100
AcDbLinetypeTableRecord
  2
DOT
 70
           0
  3
DOT
 72
          65
 73
           2
 40
0.25
 49
0.0
 74
           0
 49
-0.25
 74
           0
  0
LTYPE
  5
2A
100
AcDbSymbolTableRecord
100
AcDbLinetypeTableRecord
  2
HIDDEN
 70
           0
  3
HIDDEN
 72
          65
 73
           2
 40
0.375
 49
0.25
 74
           0
 49
-0.125
 74
           0
  0
LTYPE
  5
2B
100
AcDbSymbolTableRecord
100
AcDbLinetypeTableRecord
  2
PHANTOM
 70
           0
  3
PHANTOM
 72
          65
 73
           6
 40
2.5
 49
1.25
 74
           0
 49
-0.25
 74
           0
 49
0.25
 74
           0
 49
-0.25
 74
           0
 49
0.25
 74
           0
 49
-0.25
 74
           0
  0
LTYPE
  5
2C
100
AcDbSymbolTableRecord
100
AcDbLinetypeTableRecord
  2
$INVISIBLE
 70
           0
  3
$INVISIBLE
 72
          65
 73
           2
 40
200.0
 49
-100.0
 74
           0
 49
-100.0
 74
           0
  0
LTYPE
  5
2D
100
AcDbSymbolTableRecord
100
AcDbLinetypeTableRecord
  2
$SNAPEXT
 70
           0
  3
$SNAPEXT
 72
          65
 73
           2
 40
0.04
 49
0.02
 74
           0
 49
-0.02
 74
           0
  0
LTYPE
  5
2E
100
AcDbSymbolTableRecord
100
AcDbLinetypeTableRecord
  2
$CONSTRUCTION
 70
           0
  3
$CONSTRUCTION
 72
          65
 73
           4
 40
0.3
 49
0.2
 74
           0
 49
-0.05
 74
           0
 49
0.0
 74
           0
 49
-0.05
 74
           0
  0
LTYPE
  5
2F
100
AcDbSymbolTableRecord
100
AcDbLinetypeTableRecord
  2
$AUXILIARY
 70
           0
  3
$AUXILIARY
 72
          65
 73
           2
 40
0.1
 49
0.05
 74
           0
 49
-0.05
 74
           0
  0
ENDTAB
  0
TABLE
  2
LAYER
  5
2
100
AcDbSymbolTable
 70
           5
  0
LAYER
  5
14
100
AcDbSymbolTableRecord
100
AcDbLayerTableRecord
  2
0
 70
           0
 62
           7
  6
Continuous
290
           1
370
           0
390
0
1001
TCAD
1000
TCW_LAYER_ORDER
1002
{
1071
        0
1002
}
  0
LAYER
  5
30
100
AcDbSymbolTableRecord
100
AcDbLayerTableRecord
  2
$CONSTRUCTION
 70
           0
 62
           9
  6
$CONSTRUCTION
290
           1
370
           0
390
0
1001
TCAD
1000
TCW_LAYER_ORDER
1002
{
1071
        0
1002
}
  0
LAYER
  5
31
100
AcDbSymbolTableRecord
100
AcDbLayerTableRecord
  2
LAYER_1
 70
           0
 62
           7
  6
Continuous
290
           1
370
           0
390
0
1001
TCAD
1000
TCW_LAYER_ORDER
1002
{
1071
        0
1002
}
  0
LAYER
  5
32
100
AcDbSymbolTableRecord
100
AcDbLayerTableRecord
  2
LAYER_2
 70
           0
 62
           7
  6
Continuous
290
           1
370
           0
390
0
1001
TCAD
1000
TCW_LAYER_ORDER
1002
{
1071
        0
1002
}
  0
LAYER
  5
33
100
AcDbSymbolTableRecord
100
AcDbLayerTableRecord
  2
7
 70
           0
 62
           7
  6
Continuous
290
           1
370
           0
390
0
1001
TCAD
1000
TCW_LAYER_ORDER
1002
{
1071
        0
1002
}
  0
ENDTAB
  0
TABLE
  2
STYLE
  5
3
100
AcDbSymbolTable
 70
           4
  0
STYLE
  5
17
100
AcDbSymbolTableRecord
100
AcDbTextStyleTableRecord
  2
STANDARD
 70
           0
 40
0.0
 41
1.0
 50
0.0
 71
           0
 42
0.15000000596
  3
ARIAL.TTF
  4

1001
ACAD
1000
Arial
1071
       34
  0
STYLE
  5
35
100
AcDbSymbolTableRecord
100
AcDbTextStyleTableRecord
  2
_TCW_TXTSTY_1
 70
           0
 40
0.0
 41
1.0
 50
0.0
 71
           0
 42
0.600000023842
  3
TIMES.TTF
  4

1001
ACAD
1000
Times New Roman
1071
      290
  0
STYLE
  5
39
100
AcDbSymbolTableRecord
100
AcDbTextStyleTableRecord
  2
_TCW_TXTSTY_2
 70
           0
 40
0.0
 41
1.22
 50
0.0
 71
           0
 42
0.08749999851
  3
TIMES.TTF
  4

1001
ACAD
1000
Times New Roman
1071
      290
  0
STYLE
  5
73
100
AcDbSymbolTableRecord
100
AcDbTextStyleTableRecord
  2
_TCW_TXTSTY_3
 70
           0
 40
0.0
 41
1.0
 50
0.0
 71
           0
 42
0.058333333582
  3

  4

1001
ACAD
1000
AvantGarde Bk BT
1071
 16777506
  0
ENDTAB
  0
TABLE
  2
VIEW
  5
5
100
AcDbSymbolTable
 70
           1
  0
VIEW
  5
34
100
AcDbSymbolTableRecord
100
AcDbViewTableRecord
  2
View_0
 70
           0
 40
8.267716535433
 10
5.846456692913
 20
4.133858267717
 41
11.692913385827
 11
0.0
 21
0.0
 31
1.0
 12
0.0
 22
0.0
 32
0.0
 42
92.090489446729
 43
0.0
 44
0.0
 50
0.0
 71
           0
281
           0
 72
           0
110
0.0
120
0.0
130
0.0
111
1.0
121
0.0
131
0.0
112
0.0
122
1.0
132
0.0
  0
ENDTAB
  0
TABLE
  2
UCS
  5
6
100
AcDbSymbolTable
 70
           0
  0
ENDTAB
  0
TABLE
  2
APPID
  5
8
100
AcDbSymbolTable
 70
           2
  0
APPID
  5
16
100
AcDbSymbolTableRecord
100
AcDbRegAppTableRecord
  2
ACAD
 70
           0
  0
APPID
  5
23
100
AcDbSymbolTableRecord
100
AcDbRegAppTableRecord
  2
TCAD
 70
           0
  0
ENDTAB
  0
TABLE
  2
DIMSTYLE
  5
9
100
AcDbSymbolTable
 70
           1
100
AcDbDimStyleTable
 71
           0
  0
DIMSTYLE
105
18
100
AcDbSymbolTableRecord
100
AcDbDimStyleTableRecord
  2
STANDARD
 70
           0
  3
<>in
  4
<>
 40
1.0
 41
0.125
 42
0.0625
 43
0.375
 44
0.125
 45
0.0001
 46
0.0
 47
0.0
 48
0.0
 71
           0
 72
           0
 73
           1
 74
           1
 75
           0
 76
           0
 77
           1
 78
           0
 79
           0
140
0.11666666664
141
0.09
142
0.0
143
1.0
144
1.0
145
0.0
146
1.0
147
0.0625
148
0.01
170
           0
171
           2
172
           1
173
           0
174
           1
175
           0
176
           7
177
           7
178
           7
179
           4
271
           4
272
           4
273
           2
274
           2
275
           0
276
           0
277
           5
278
          46
279
           0
280
           0
281
           0
282
           0
283
           1
284
           0
285
           0
286
           0
288
           0
340
35
341
0
342
0
343
0
344
0
371
          -2
372
          -2
  0
ENDTAB
  0
TABLE
  2
BLOCK_RECORD
  5
1
100
AcDbSymbolTable
 70
           2
  0
BLOCK_RECORD
  5
A
100
AcDbSymbolTableRecord
100
AcDbBlockTableRecord
  2
*MODEL_SPACE
340
36
  0
BLOCK_RECORD
  5
B
100
AcDbSymbolTableRecord
100
AcDbBlockTableRecord
  2
*PAPER_SPACE
340
75
  0
BLOCK_RECORD
  5
53
100
AcDbSymbolTableRecord
100
AcDbBlockTableRecord
  2
*D0
340
0
  0
BLOCK_RECORD
  5
62
100
AcDbSymbolTableRecord
100
AcDbBlockTableRecord
  2
*D1
340
0
  0
ENDTAB
  0
ENDSEC
  0
SECTION
  2
BLOCKS
  0
BLOCK
  5
D
100
AcDbEntity
  8
0
100
AcDbBlockBegin
  2
*MODEL_SPACE
 70
           0
 10
0.0
 20
0.0
 30
0.0
  3
*MODEL_SPACE
  1

  0
ENDBLK
  5
E
100
AcDbEntity
  8
0
100
AcDbBlockEnd
  0
BLOCK
  5
F
100
AcDbEntity
 67
           1
  8
0
100
AcDbBlockBegin
  2
*PAPER_SPACE
 70
           0
 10
0.0
 20
0.0
 30
0.0
  3
*PAPER_SPACE
  1

  0
ENDBLK
  5
10
100
AcDbEntity
 67
           1
  8
0
100
AcDbBlockEnd
  0
BLOCK
  5
54
100
AcDbEntity
  8
0
100
AcDbBlockBegin
  2
*D0
 70
           1
 10
0.0
 20
0.0
 30
0.0
  3
*D0
  1

  0
LINE
  5
55
100
AcDbEntity
  8
0
370
           0
  6
Continuous
 62
           7
100
AcDbLine
 10
5.077450399565
 20
6.549097329361
 30
0.0
 11
3.980320515336
 21
6.549097329361
 31
0.0
1001
TCAD
1000
TCW_ATTRIBUTE
1002
{
1000
<3 3/8>
1002
}
  0
LINE
  5
56
100
AcDbEntity
  8
0
370
           0
  6
Continuous
 62
           7
100
AcDbLine
 10
5.649219546113
 20
3.159323103399
 30
0.0
 11
3.980320515336
 21
3.159323103399
 31
0.0
1001
TCAD
1000
TCW_ATTRIBUTE
1002
{
1000
<3 3/8>
1002
}
  0
LWPOLYLINE
  5
57
100
AcDbEntity
  8
0
370
           0
  6
Continuous
 62
           7
100
AcDbPolyline
 90
        4
 70
           0
 10
4.105320515336
 20
6.424097329361
 10
4.105320515336
 20
6.424097329361
 10
4.105320515336
 20
6.424097329361
 10
4.105320515336
 20
5.013932440258
1001
TCAD
1000
TCW_ATTRIBUTE
1002
{
1000
<3 3/8>
1002
}
  0
LWPOLYLINE
  5
58
100
AcDbEntity
  8
0
370
           0
  6
Continuous
 62
           7
100
AcDbPolyline
 90
        4
 70
           0
 10
4.105320515336
 20
3.284323103399
 10
4.105320515336
 20
3.284323103399
 10
4.105320515336
 20
3.284323103399
 10
4.105320515336
 20
4.694487992502
1001
TCAD
1000
TCW_ATTRIBUTE
1002
{
1000
<3 3/8>
1002
}
  0
LWPOLYLINE
  5
5B
100
AcDbEntity
  8
0
370
           0
  6
Continuous
 62
           7
100
AcDbPolyline
 90
        4
 70
           0
 10
4.105320515336
 20
6.549097329361
 40
0.0
 41
0.0
 10
4.089070515336
 20
6.424097329361
 40
0.0
 41
0.0
 10
4.121570515336
 20
6.424097329361
 40
0.0
 41
0.0
 10
4.105320515336
 20
6.549097329361
 40
0.0
 41
0.0
1001
TCAD
1000
TCW_ATTRIBUTE
1002
{
1000
<3 3/8>
1002
}
  0
HATCH
  5
59
100
AcDbEntity
  8
0
  6
Continuous
 62
           7
100
AcDbHatch
 10
0.0
 20
0.0
 30
0.0
210
0.0
220
0.0
230
1.0
  2
SOLID
 70
           1
 71
           1
 91
        1
 92
        3
 72
           0
 73
           1
 93
        3
 10
4.1053205153357784
 20
6.5490973293613433
 10
4.089070515335778
 20
6.4240973293613433
 10
4.1215705153357787
 20
6.4240973293613433
 97
        1
330
5A
 75
           0
 76
           0
 98
        0
1001
TCAD
1000
TCW_ATTRIBUTE
1002
{
1000
<3 3/8>
1002
}
  0
LWPOLYLINE
  5
5E
100
AcDbEntity
  8
0
370
           0
  6
Continuous
 62
           7
100
AcDbPolyline
 90
        4
 70
           0
 10
4.105320515336
 20
3.159323103399
 40
0.0
 41
0.0
 10
4.121570515336
 20
3.284323103399
 40
0.0
 41
0.0
 10
4.089070515336
 20
3.284323103399
 40
0.0
 41
0.0
 10
4.105320515336
 20
3.159323103399
 40
0.0
 41
0.0
1001
TCAD
1000
TCW_ATTRIBUTE
1002
{
1000
<3 3/8>
1002
}
  0
HATCH
  5
5C
100
AcDbEntity
  8
0
  6
Continuous
 62
           7
100
AcDbHatch
 10
0.0
 20
0.0
 30
0.0
210
0.0
220
0.0
230
1.0
  2
SOLID
 70
           1
 71
           1
 91
        1
 92
        3
 72
           0
 73
           1
 93
        3
 10
4.1053205153357784
 20
3.1593231033987559
 10
4.1215705153357787
 20
3.2843231033987559
 10
4.089070515335778
 20
3.2843231033987559
 97
        1
330
5D
 75
           0
 76
           0
 98
        0
1001
TCAD
1000
TCW_ATTRIBUTE
1002
{
1000
<3 3/8>
1002
}
  0
MTEXT
  5
5F
100
AcDbEntity
  8
0
  6
Continuous
 62
           7
100
AcDbMText
 10
4.105320515336
 20
4.85421021638
 30
0.0
 40
0.116666668653
 41
0.0
 71
           5
 72
           1
  1
\A1;3 3/8{}in
  7
_TCW_TXTSTY_1
 73
           1
 44
1.0
1001
TCAD
1000
TCW_REFPOINT
1002
{
1010
4.105320515336
1020
4.85421021638
1030
0.0
1002
}
1000
TCW_ATTRIBUTE
1002
{
1000
<3 3/8>
1002
}
  0
ENDBLK
  5
60
100
AcDbEntity
  8
0
100
AcDbBlockEnd
  0
BLOCK
  5
63
100
AcDbEntity
  8
0
100
AcDbBlockBegin
  2
*D1
 70
           1
 10
0.0
 20
0.0
 30
0.0
  3
*D1
  1

  0
LINE
  5
64
100
AcDbEntity
  8
0
370
           0
  6
Continuous
 62
           7
100
AcDbLine
 10
5.729587331455
 20
4.656351051779
 30
0.0
 11
5.729587331455
 21
7.35987996648
 31
0.0
1001
TCAD
1000
TCW_ATTRIBUTE
1002
{
1000
<9/16>
1002
}
  0
LINE
  5
65
100
AcDbEntity
  8
0
370
           0
  6
Continuous
 62
           7
100
AcDbLine
 10
5.171857160055
 20
6.616702411066
 30
0.0
 11
5.171857160055
 21
7.35987996648
 31
0.0
1001
TCAD
1000
TCW_ATTRIBUTE
1002
{
1000
<9/16>
1002
}
  0
LWPOLYLINE
  5
66
100
AcDbEntity
  8
0
370
           0
  6
Continuous
 62
           7
100
AcDbPolyline
 90
        2
 70
           0
 10
5.979587331455
 20
7.23487996648
 10
5.854587331455
 20
7.23487996648
1001
TCAD
1000
TCW_ATTRIBUTE
1002
{
1000
<9/16>
1002
}
  0
LWPOLYLINE
  5
67
100
AcDbEntity
  8
0
370
           0
  6
Continuous
 62
           7
100
AcDbPolyline
 90
        2
 70
           0
 10
5.729587331455
 20
7.23487996648
 40
0.0
 41
0.0
 10
5.450722245755
 20
7.23487996648
 40
0.0
 41
0.0
1001
TCAD
1000
TCW_ATTRIBUTE
1002
{
1000
<9/16>
1002
}
  0
LWPOLYLINE
  5
68
100
AcDbEntity
  8
0
370
           0
  6
Continuous
 62
           7
100
AcDbPolyline
 90
        2
 70
           0
 10
4.921857160055
 20
7.23487996648
 10
5.046857160055
 20
7.23487996648
1001
TCAD
1000
TCW_ATTRIBUTE
1002
{
1000
<9/16>
1002
}
  0
LWPOLYLINE
  5
69
100
AcDbEntity
  8
0
370
           0
  6
Continuous
 62
           7
100
AcDbPolyline
 90
        2
 70
           0
 10
5.171857160055
 20
7.23487996648
 40
0.0
 41
0.0
 10
5.450722245755
 20
7.23487996648
 40
0.0
 41
0.0
1001
TCAD
1000
TCW_ATTRIBUTE
1002
{
1000
<9/16>
1002
}
  0
LWPOLYLINE
  5
6C
100
AcDbEntity
  8
0
370
           0
  6
Continuous
 62
           7
100
AcDbPolyline
 90
        4
 70
           0
 10
5.171857160055
 20
7.23487996648
 40
0.0
 41
0.0
 10
5.046857160055
 20
7.25112996648
 40
0.0
 41
0.0
 10
5.046857160055
 20
7.21862996648
 40
0.0
 41
0.0
 10
5.171857160055
 20
7.23487996648
 40
0.0
 41
0.0
1001
TCAD
1000
TCW_ATTRIBUTE
1002
{
1000
<9/16>
1002
}
  0
HATCH
  5
6A
100
AcDbEntity
  8
0
  6
Continuous
 62
           7
100
AcDbHatch
 10
0.0
 20
0.0
 30
0.0
210
0.0
220
0.0
230
1.0
  2
SOLID
 70
           1
 71
           1
 91
        1
 92
        3
 72
           0
 73
           1
 93
        3
 10
5.1718571600552146
 20
7.234879966480098
 10
5.0468571600552146
 20
7.2511299664800983
 10
5.0468571600552146
 20
7.2186299664800977
 97
        1
330
6B
 75
           0
 76
           0
 98
        0
1001
TCAD
1000
TCW_ATTRIBUTE
1002
{
1000
<9/16>
1002
}
  0
LWPOLYLINE
  5
6F
100
AcDbEntity
  8
0
370
           0
  6
Continuous
 62
           7
100
AcDbPolyline
 90
        4
 70
           0
 10
5.729587331455
 20
7.23487996648
 40
0.0
 41
0.0
 10
5.854587331455
 20
7.21862996648
 40
0.0
 41
0.0
 10
5.854587331455
 20
7.25112996648
 40
0.0
 41
0.0
 10
5.729587331455
 20
7.23487996648
 40
0.0
 41
0.0
1001
TCAD
1000
TCW_ATTRIBUTE
1002
{
1000
<9/16>
1002
}
  0
HATCH
  5
6D
100
AcDbEntity
  8
0
  6
Continuous
 62
           7
100
AcDbHatch
 10
0.0
 20
0.0
 30
0.0
210
0.0
220
0.0
230
1.0
  2
SOLID
 70
           1
 71
           1
 91
        1
 92
        3
 72
           0
 73
           1
 93
        3
 10
5.729587331454721
 20
7.234879966480098
 10
5.854587331454721
 20
7.2186299664800977
 10
5.854587331454721
 20
7.2511299664800983
 97
        1
330
6E
 75
           0
 76
           0
 98
        0
1001
TCAD
1000
TCW_ATTRIBUTE
1002
{
1000
<9/16>
1002
}
  0
MTEXT
  5
70
100
AcDbEntity
  8
0
  6
Continuous
 62
           7
100
AcDbMText
 10
5.450722245755
 20
7.394602190358
 30
0.0
 40
0.116666668653
 41
0.0
 71
           5
 72
           1
  1
\A1;9/16{}in
  7
_TCW_TXTSTY_1
 73
           1
 44
1.0
1001
TCAD
1000
TCW_REFPOINT
1002
{
1010
5.450722245755
1020
7.394602190358
1030
0.0
1002
}
1000
TCW_ATTRIBUTE
1002
{
1000
<9/16>
1002
}
  0
ENDBLK
  5
71
100
AcDbEntity
  8
0
100
AcDbBlockEnd
  0
ENDSEC
  0
SECTION
  2
ENTITIES
  0
VIEWPORT
  5
37
100
AcDbEntity
 67
           1
  8
0
100
AcDbViewport
 10
6.4174970858
 20
4.52237990855
 30
0.0
 40
12.7014431828
 41
6.8612297579
 68
           1
 69
           1
 12
6.4174970858
 22
4.52237990855
 13
0.0
 23
0.0
 14
0.5
 24
0.5
 15
0.5
 25
0.5
 16
0.0
 26
0.0
 36
1.0
 17
0.0
 27
0.0
 37
0.0
 42
50.0
 43
0.0
 44
0.0
 45
6.8612297579
 50
0.0
 51
0.0
 72
         100
 90
    32800
340
0
  1

281
           0
 71
           0
 74
           1
110
0.0
120
0.0
130
0.0
111
1.0
121
0.0
131
0.0
112
0.0
122
1.0
132
0.0
345
0
346
0
 79
           0
146
0.0
  0
TEXT
  5
38
100
AcDbEntity
 67
           1
  8
0
  6
Continuous
 62
           7
100
AcDbText
 10
4.836989596406
 20
2.278345160321
 30
0.0
 40
0.133333003521
  1
# 2215-MDF
  7
_TCW_TXTSTY_1
 11
4.836989596406
 21
2.411678163842
 31
0.0
100
AcDbText
 73
           3
1001
TCAD
1000
TCW40_TEXT
1002
{
1000
Times New Roman
1070
           0
1070
         257
1002
}
  0
MTEXT
  5
3A
100
AcDbEntity
 67
           1
  8
0
  6
Continuous
 62
           7
100
AcDbMText
 10
4.836989596406
 20
2.032190829515
 30
0.0
 40
0.08749999702
 41
1.350353
 71
           1
 72
           1
  1
{Saroyan Lumber Co.\P(800) 624-9309}
  7
_TCW_TXTSTY_2
 73
           1
 44
1.0
1001
TCAD
1000
TCW_REFPOINT
1002
{
1010
4.836989596406
1020
1.893207163842
1030
0.0
1002
}
1000
TCW40_TEXT
1002
{
1000
Times New Roman
1070
           0
1070
         257
1002
}
  0
TEXT
  5
3B
100
AcDbEntity
 67
           1
  8
0
  6
Continuous
 62
           7
100
AcDbText
 10
4.836697596406
 20
2.097591160861
 30
0.0
 40
0.10000000298
  1
9/16  (14 mm)  x 3-3/8
  7
_TCW_TXTSTY_1
 11
4.836697596406
 21
2.197591163842
 31
0.0
100
AcDbText
 73
           3
1001
TCAD
1000
TCW_REFPOINT
1002
{
1010
4.836697596406
1020
2.230924163842
1030
0.0
1002
}
1000
TCW40_TEXT
1002
{
1000
Times New Roman
1070
           0
1070
         257
1002
}
  0
LINE
  5
3C
100
AcDbEntity
 67
           1
  8
0
370
          35
  6
Continuous
 62
           7
100
AcDbLine
 10
5.153294381744
 20
3.184149517767
 30
0.0
 11
5.716894476486
 21
3.153956655082
 31
0.0
1001
ACAD
1000
TCW40_DEV_WIDTH
1002
{
1040
0.014000000432
1002
}
1001
TCAD
1000
TCW_REFPOINT
1002
{
1010
5.435094429115
1020
3.169053086424
1030
0.0
1002
}
1000
TCW_CUSTOM_DATA
1002
{
1000
#$AUX@_ToolInfo Properties
1070
           8
1000
Modify^JMeet2Lines@Meet2Lines
1002
}
  0
LINE
  5
3D
100
AcDbEntity
 67
           1
  8
0
370
          35
  6
Continuous
 62
           7
100
AcDbLine
 10
5.460622268412
 20
6.028418737249
 30
0.0
 11
5.460622268412
 21
5.16692257374
 31
0.0
1001
ACAD
1000
TCW40_DEV_WIDTH
1002
{
1040
0.014000000432
1002
}
1001
TCAD
1000
TCW_CUSTOM_DATA
1002
{
1000
#$AUX@_ToolInfo Properties
1070
           8
1000
Modify^JMeet2Lines@Meet2Lines
1002
}
  0
LINE
  5
3E
100
AcDbEntity
 67
           1
  8
0
370
          35
  6
Continuous
 62
           7
100
AcDbLine
 10
5.367212359454
 20
6.055175969671
 30
0.0
 11
5.367212359454
 21
6.028418737249
 31
0.0
1001
ACAD
1000
TCW40_DEV_WIDTH
1002
{
1040
0.014000000432
1002
}
1001
TCAD
1000
TCW_CUSTOM_DATA
1002
{
1000
#$AUX@_ToolInfo Properties
1070
           8
1000
Modify^JMeet2Lines@Meet2Lines
1002
}
  0
ELLIPSE
  5
3F
100
AcDbEntity
 67
           1
  8
0
370
          35
  6
Continuous
 62
           7
100
AcDbEllipse
 10
5.50054064504
 20
4.58194503367
 30
0.0
 11
0.2314948819271473
 21
0.0
 31
0.0
210
0.0
220
0.0
230
1.0
 40
0.985737466911
 41
-1.2734102181328444
 42
0.541438572552301
1001
ACAD
1000
TCW40_DEV_WIDTH
1002
{
1040
0.014000000432
1002
}
1001
TCAD
1000
TCW_CUSTOM_DATA
1002
{
1000
#$AUX@_ToolInfo Properties
1070
           8
1000
Insert^JArc^JTriplePoint132@Arc TriplePoint132
1002
}
  0
ARC
  5
40
100
AcDbEntity
 67
           1
  8
0
370
          35
  6
Continuous
 62
           7
100
AcDbCircle
 10
6.105122545292
 20
5.085338575738
 30
0.0
 40
0.560205936589
100
AcDbArc
 50
-167.235414195505
 51
-136.4761023914
1001
ACAD
1000
TCW40_DEV_WIDTH
1002
{
1040
0.014000000432
1002
}
1001
TCAD
1000
TCW_CUSTOM_DATA
1002
{
1000
#$AUX@_ToolInfo Properties
1070
           8
1000
Insert^JArc^JTriplePoint132@Arc TriplePoint132
1002
}
  0
ARC
  5
41
100
AcDbEntity
 67
           1
  8
0
370
          35
  6
Continuous
 62
           7
100
AcDbCircle
 10
5.372356438437
 20
6.207036133072
 30
0.0
 40
0.151947263143
100
AcDbArc
 50
-91.940083277452
 51
36.396128253285
1001
ACAD
1000
TCW40_DEV_WIDTH
1002
{
1040
0.014000000432
1002
}
1001
TCAD
1000
TCW_CUSTOM_DATA
1002
{
1000
#$AUX@_ToolInfo Properties
1070
           8
1000
Insert^JArc^JTriplePoint132@Arc TriplePoint132
1002
}
  0
ARC
  5
42
100
AcDbEntity
 67
           1
  8
0
370
          35
  6
Continuous
 62
           7
100
AcDbCircle
 10
4.590815393144
 20
5.496254018403
 30
0.0
 40
1.2076633
100
AcDbArc
 50
41.545645100395
 51
49.66120977738
1001
ACAD
1000
TCW40_DEV_WIDTH
1002
{
1040
0.014000000432
1002
}
1001
TCAD
1000
TCW_CUSTOM_DATA
1002
{
1000
#$AUX@_ToolInfo Properties
1070
           8
1000
Insert^JArc^JTriplePoint132@Arc TriplePoint132
1002
}
  0
ELLIPSE
  5
43
100
AcDbEntity
 67
           1
  8
0
370
          35
  6
Continuous
 62
           7
100
AcDbEllipse
 10
5.559751117159
 20
6.597235031727
 30
0.0
 11
0.2622028076614919
 21
0.0
 31
0.0
210
0.0
220
0.0
230
1.0
 40
0.982996902512
 41
-2.9474020280080109
 42
-2.3659652681681882
1001
ACAD
1000
TCW40_DEV_WIDTH
1002
{
1040
0.014000000432
1002
}
1001
TCAD
1000
TCW_CUSTOM_DATA
1002
{
1000
#$AUX@_ToolInfo Properties
1070
           8
1000
Insert^JArc^JTriplePoint132@Arc TriplePoint132
1002
}
  0
LINE
  5
44
100
AcDbEntity
 67
           1
  8
0
370
          35
  6
Continuous
 62
           7
100
AcDbLine
 10
5.152287679759
 20
6.547497438301
 30
0.0
 11
5.302476626831
 21
6.547497438301
 31
0.0
1001
ACAD
1000
TCW40_DEV_WIDTH
1002
{
1040
0.014000000432
1002
}
1001
TCAD
1000
TCW_CUSTOM_DATA
1002
{
1000
#$AUX@_ToolInfo Properties
1070
           8
1000
Modify^JMeet2Lines@Meet2Lines
1002
}
  0
LINE
  5
45
100
AcDbEntity
 67
           1
  8
0
370
          35
  6
Continuous
 62
           7
100
AcDbLine
 10
5.367212359454
 20
6.028418737249
 30
0.0
 11
5.460622268412
 21
6.028418737249
 31
0.0
1001
ACAD
1000
TCW40_DEV_WIDTH
1002
{
1040
0.014000000432
1002
}
1001
TCAD
1000
TCW_CUSTOM_DATA
1002
{
1000
#$AUX@_ToolInfo Properties
1070
           8
1000
Modify^JMeet2Lines@Meet2Lines
1002
}
  0
LINE
  5
46
100
AcDbEntity
 67
           1
  8
0
370
          35
  6
Continuous
 62
           7
100
AcDbLine
 10
5.153294381744
 20
3.676485193472
 30
0.0
 11
5.153294381744
 21
3.184149517767
 31
0.0
1001
ACAD
1000
TCW40_DEV_WIDTH
1002
{
1040
0.014000000432
1002
}
1001
TCAD
1000
TCW_CUSTOM_DATA
1002
{
1000
#$AUX@_ToolInfo Properties
1070
           8
1000
Modify^JMeet2Lines@Meet2Lines
1002
}
  0
LINE
  5
47
100
AcDbEntity
 67
           1
  8
0
370
          35
  6
Continuous
 62
           7
100
AcDbLine
 10
5.460622268412
 20
5.16692257374
 30
0.0
 11
5.533005355601
 21
5.16692257374
 31
0.0
1001
ACAD
1000
TCW40_DEV_WIDTH
1002
{
1040
0.014000000432
1002
}
1001
TCAD
1000
TCW_CUSTOM_DATA
1002
{
1000
#$AUX@_ToolInfo Properties
1070
           8
1000
Modify^JMeet2Lines@Meet2Lines
1002
}
  0
ARC
  5
48
100
AcDbEntity
 67
           1
  8
0
370
          35
  6
Continuous
 62
           7
100
AcDbCircle
 10
6.407785800071
 20
5.172342754861
 30
0.0
 40
0.874797236158
100
AcDbArc
 50
-179.644997175791
 51
-166.057592994843
1001
ACAD
1000
TCW40_DEV_WIDTH
1002
{
1040
0.014000000432
1002
}
1001
TCAD
1000
TCW_CUSTOM_DATA
1002
{
1000
#$AUX@_ToolInfo Properties
1070
           8
1000
Insert^JArc^JTriplePoint132@Arc TriplePoint132
1002
}
  0
LINE
  5
49
100
AcDbEntity
 67
           1
  8
0
370
          35
  6
Continuous
 62
           7
100
AcDbLine
 10
5.568373750872
 20
4.363768239026
 30
0.0
 11
5.716894476486
 21
4.363768239026
 31
0.0
1001
ACAD
1000
TCW40_DEV_WIDTH
1002
{
1040
0.014000000432
1002
}
1001
TCAD
1000
TCW_CUSTOM_DATA
1002
{
1000
#$AUX@_ToolInfo Properties
1070
           8
1000
Modify^JMeet2Lines@Meet2Lines
1002
}
  0
LINE
  5
4A
100
AcDbEntity
 67
           1
  8
0
370
          35
  6
Continuous
 62
           7
100
AcDbLine
 10
5.716894476486
 20
4.363768239026
 30
0.0
 11
5.716894476486
 21
3.153956655082
 31
0.0
1001
ACAD
1000
TCW40_DEV_WIDTH
1002
{
1040
0.014000000432
1002
}
1001
TCAD
1000
TCW_CUSTOM_DATA
1002
{
1000
#$AUX@_ToolInfo Properties
1070
           8
1000
Modify^JMeet2Lines@Meet2Lines
1002
}
  0
LINE
  5
4B
100
AcDbEntity
 67
           1
  8
0
370
          35
  6
Continuous
 62
           7
100
AcDbLine
 10
5.204961310937
 20
4.528954978242
 30
0.0
 11
5.204961310937
 21
3.762147916533
 31
0.0
1001
ACAD
1000
TCW40_DEV_WIDTH
1002
{
1040
0.014000000432
1002
}
1001
TCAD
1000
TCW_CUSTOM_DATA
1002
{
1000
#$AUX@_ToolInfo Properties
1070
           8
1000
Modify^JMeet2Lines@Meet2Lines
1002
}
  0
ELLIPSE
  5
4C
100
AcDbEntity
 67
           1
  8
0
370
          35
  6
Continuous
 62
           7
100
AcDbEllipse
 10
5.090189584804
 20
5.808449365703
 30
0.0
 11
0.1183856427166477
 21
0.0
 31
0.0
210
0.0
220
0.0
230
1.0
 40
0.943546279282
 41
-0.1264318884351254
 42
1.0186207070963442
1001
ACAD
1000
TCW40_DEV_WIDTH
1002
{
1040
0.014000000432
1002
}
1001
TCAD
1000
TCW_CUSTOM_DATA
1002
{
1000
#$AUX@_ToolInfo Properties
1070
           8
1000
Insert^JArc^JTriplePoint132@Arc TriplePoint132
1002
}
  0
ARC
  5
4D
100
AcDbEntity
 67
           1
  8
0
370
          35
  6
Continuous
 62
           7
100
AcDbCircle
 10
5.095596615457
 20
4.516165819288
 30
0.0
 40
0.110109941442
100
AcDbArc
 50
6.669901704996
 51
58.685973295037
1001
ACAD
1000
TCW40_DEV_WIDTH
1002
{
1040
0.014000000432
1002
}
1001
TCAD
1000
TCW_CUSTOM_DATA
1002
{
1000
#$AUX@_ToolInfo Properties
1070
           8
1000
Insert^JArc^JTriplePoint132@Arc TriplePoint132
1002
}
  0
ELLIPSE
  5
4E
100
AcDbEntity
 67
           1
  8
0
370
          35
  6
Continuous
 62
           7
100
AcDbEllipse
 10
5.146129640728
 20
3.747508127234
 30
0.0
 11
0.0
 21
-0.0711931694013798
 31
0.0
210
0.0
220
0.0
230
1.0
 40
0.844412887485
 41
0.1205452098694111
 42
1.7779085973057382
1001
ACAD
1000
TCW40_DEV_WIDTH
1002
{
1040
0.014000000432
1002
}
1001
TCAD
1000
TCW_CUSTOM_DATA
1002
{
1000
#$AUX@_ToolInfo Properties
1070
           8
1000
Insert^JArc^JTriplePoint132@Arc TriplePoint132
1002
}
  0
LINE
  5
4F
100
AcDbEntity
 67
           1
  8
0
370
          35
  6
Continuous
 62
           7
100
AcDbLine
 10
5.15282386574
 20
4.967988558947
 30
0.0
 11
5.15282386574
 21
4.61023622393
 31
0.0
1001
ACAD
1000
TCW40_DEV_WIDTH
1002
{
1040
0.014000000432
1002
}
1001
TCAD
1000
TCW_CUSTOM_DATA
1002
{
1000
#$AUX@_ToolInfo Properties
1070
           8
1000
Modify^JMeet2Lines@Meet2Lines
1002
}
  0
LINE
  5
50
100
AcDbEntity
 67
           1
  8
0
370
          35
  6
Continuous
 62
           7
100
AcDbLine
 10
5.20763028869
 20
5.794364224153
 30
0.0
 11
5.20763028869
 21
5.028634326424
 31
0.0
1001
ACAD
1000
TCW40_DEV_WIDTH
1002
{
1040
0.014000000432
1002
}
1001
TCAD
1000
TCW_CUSTOM_DATA
1002
{
1000
#$AUX@_ToolInfo Properties
1070
           8
1000
Modify^JMeet2Lines@Meet2Lines
1002
}
  0
ELLIPSE
  5
51
100
AcDbEntity
 67
           1
  8
0
370
          35
  6
Continuous
 62
           7
100
AcDbEllipse
 10
5.146305318079
 20
5.039758871988
 30
0.0
 11
0.0
 21
-0.0721727689507346
 31
0.0
210
0.0
220
0.0
230
1.0
 40
0.859974025029
 41
0.1050482107384005
 42
1.416041649238287
1001
ACAD
1000
TCW40_DEV_WIDTH
1002
{
1040
0.014000000432
1002
}
1001
TCAD
1000
TCW_CUSTOM_DATA
1002
{
1000
#$AUX@_ToolInfo Properties
1070
           8
1000
Insert^JArc^JTriplePoint132@Arc TriplePoint132
1002
}
  0
LINE
  5
52
100
AcDbEntity
 67
           1
  8
0
370
          35
  6
Continuous
 62
           7
100
AcDbLine
 10
5.152287679759
 20
6.547497438301
 30
0.0
 11
5.152287679759
 21
5.903551093843
 31
0.0
1001
ACAD
1000
TCW40_DEV_WIDTH
1002
{
1040
0.014000000432
1002
}
1001
TCAD
1000
TCW_CUSTOM_DATA
1002
{
1000
#$AUX@_ToolInfo Properties
1070
           8
1000
Modify^JMeet2Lines@Meet2Lines
1002
}
  0
DIMENSION
  5
61
100
AcDbEntity
 67
           1
  8
0
  6
Continuous
 62
           7
100
AcDbDimension
  2
*D0
 10
4.105320515336
 20
3.159323103399
 30
0.0
 11
4.105320515336
 21
4.85421021638
 31
0.0
 71
           5
 72
           1
 41
1.0
 42
0.0
  1
<3 3/8>
  3
STANDARD
100
AcDbAlignedDimension
 13
5.139950399565
 23
6.549097329361
 33
0.0
 14
5.711719546113
 24
3.159323103399
 34
0.0
 50
-90.0
100
AcDbRotatedDimension
1001
TCAD
1000
TCW_CUSTOM_DATA
1002
{
1000
#$AUX@_ToolInfo Properties
1070
           8
1000
Insert^JDimension^JOrthogonal@Dimension Orthogonal
1002
}
1001
ACAD
1000
DSTYLE
1002
{
1002
}
  0
DIMENSION
  5
72
100
AcDbEntity
 67
           1
  8
0
  6
Continuous
 62
           7
100
AcDbDimension
  2
*D1
 10
5.171857160055
 20
7.23487996648
 30
0.0
 11
5.450722245755
 21
7.394602190358
 31
0.0
 71
           5
 72
           1
 41
1.0
 42
0.0
  1
<9/16>
  3
STANDARD
100
AcDbAlignedDimension
 13
5.729587331455
 23
4.593851051779
 33
0.0
 14
5.171857160055
 24
6.554202411066
 34
0.0
100
AcDbRotatedDimension
1001
TCAD
1000
TCW_CUSTOM_DATA
1002
{
1000
#$AUX@_ToolInfo Properties
1070
           8
1000
Insert^JDimension^JOrthogonal@Dimension Orthogonal
1002
}
1001
ACAD
1000
DSTYLE
1002
{
1002
}
  0
TEXT
  5
74
100
AcDbEntity
 67
           1
  8
0
  6
Continuous
 62
           7
100
AcDbText
 10
5.31673901104
 20
3.19787015674
 30
0.0
 40
0.058333334327
  1
© 2007 The Premium Series
 50
90.0
  7
_TCW_TXTSTY_3
 11
5.258405676714
 21
3.19787015674
 31
0.0
100
AcDbText
 73
           3
1001
TCAD
1000
TCW40_TEXT
1002
{
1000
AvantGarde Bk BT
1070
           1
1070
         257
1002
}
  0
ENDSEC
  0
SECTION
  2
OBJECTS
  0
DICTIONARY
  5
19
100
AcDbDictionary
280
           0
281
           1
  3
ACAD_GROUP
350
1A
  3
ACAD_MLINESTYLE
350
1B
  3
ACAD_LAYOUT
350
1E
  3
ACAD_PLOTSETTINGS
350
22
  3
ACAD_PLOTSTYLENAME
350
1F
  0
DICTIONARY
  5
1A
102
{ACAD_REACTORS
330
19
102
}
100
AcDbDictionary
280
           0
281
           1
  0
DICTIONARY
  5
1B
102
{ACAD_REACTORS
330
19
102
}
100
AcDbDictionary
280
           0
281
           1
  3
Standard
350
1C
  0
MLINESTYLE
  5
1C
100
AcDbMlineStyle
  2
STANDARD
 70
           0
  3

 62
         256
 51
90.0
 52
90.0
 71
           3
 49
0.25
 62
           7
  6
ByLayer
 49
0.0
 62
           7
  6
ByLayer
 49
-0.25
 62
           7
  6
ByLayer
  0
ACDBDICTIONARYWDFLT
  5
1F
102
{ACAD_REACTORS
330
19
102
}
100
AcDbDictionary
281
           1
  3
Normal
350
1D
100
AcDbDictionaryWithDefault
340
1D
  0
ACDBPLACEHOLDER
  5
1D
102
{ACAD_REACTORS
330
1F
102
}
  0
LAYOUT
  5
21
102
{ACAD_REACTORS
330
1E
102
}
100
AcDbPlotSettings
  1

  2

  4

  6

 40
0.0
 41
0.0
 42
0.0
 43
0.0
 44
0.0
 45
0.0
 46
0.0
 47
0.0
 48
0.0
 49
0.0
140
0.0
141
0.0
142
1.0
143
1.0
 70
           0
 72
           0
 73
           0
 74
           0
  7

 75
           0
147
1.0
148
0.0
149
0.0
100
AcDbLayout
  1
Layout1
 70
           0
 71
           0
 10
0.0
 20
0.0
 11
0.0
 21
0.0
 12
0.0
 22
0.0
 32
0.0
 14
0.0
 24
0.0
 34
0.0
 15
0.0
 25
0.0
 35
0.0
146
0.0
 13
0.0
 23
0.0
 33
0.0
 16
0.0
 26
0.0
 36
0.0
 17
0.0
 27
0.0
 37
0.0
 76
           0
330
B
331
0
345
0
346
0
  0
DICTIONARY
  5
1E
102
{ACAD_REACTORS
330
19
102
}
100
AcDbDictionary
280
           0
281
           1
  3
Model
350
36
  3
Paper 1
350
75
  0
DICTIONARY
  5
22
102
{ACAD_REACTORS
330
19
102
}
100
AcDbDictionary
280
           0
281
           1
  0
LAYOUT
  5
36
100
AcDbPlotSettings
  1

  2

  4

  6

 40
0.0
 41
0.0
 42
0.0
 43
0.0
 44
0.0
 45
0.0
 46
0.0
 47
0.0
 48
0.0
 49
0.0
140
0.0
141
0.0
142
1.0
143
1.0
 70
           0
 72
           0
 73
           0
 74
           0
  7

 75
           0
147
1.0
148
0.0
149
0.0
100
AcDbLayout
  1
Model
 70
           0
 71
           0
 10
0.0
 20
0.0
 11
0.0
 21
0.0
 12
0.0
 22
0.0
 32
0.0
 14
0.0
 24
0.0
 34
0.0
 15
0.0
 25
0.0
 35
0.0
146
0.0
 13
0.0
 23
0.0
 33
0.0
 16
0.0
 26
0.0
 36
0.0
 17
0.0
 27
0.0
 37
0.0
 76
           0
330
A
331
0
345
0
346
0
  0
LAYOUT
  5
75
100
AcDbPlotSettings
  1

  2

  4

  6

 40
0.0
 41
0.0
 42
0.0
 43
0.0
 44
215.9
 45
279.4
 46
-31.75
 47
31.75
 48
0.0
 49
0.0
140
0.0
141
0.0
142
1.0
143
1.0
 70
           0
 72
           0
 73
           0
 74
           0
  7

 75
           0
147
1.0
148
0.0
149
0.0
100
AcDbLayout
  1
Paper 1
 70
           1
 71
           1
 10
31.75
 20
-31.75
 11
247.65
 21
247.65
 12
0.0
 22
0.0
 32
0.0
 14
0.0
 24
0.0
 34
0.0
 15
0.0
 25
0.0
 35
0.0
146
0.0
 13
0.0
 23
0.0
 33
0.0
 16
0.0
 26
0.0
 36
0.0
 17
0.0
 27
0.0
 37
0.0
 76
           0
330
B
331
37
345
0
346
0
  0
ENDSEC
  0
EOF
