  0
SECTION
  2
HEADER
  9
$ACADVER
  1
AC1015
  9
$ACADMAINTVER
 70
           6
  9
$DWGCODEPAGE
  3
ANSI_1252
  9
$INSBASE
 10
0.0
 20
0.0
 30
0.0
  9
$EXTMIN
 10
1.000000000000E+20
 20
1.000000000000E+20
 30
1.000000000000E+20
  9
$EXTMAX
 10
-1.000000000000E+20
 20
-1.000000000000E+20
 30
-1.000000000000E+20
  9
$LIMMIN
 10
0.0
 20
0.0
  9
$LIMMAX
 10
8.5
 20
11.0
  9
$ORTHOMODE
 70
           0
  9
$REGENMODE
 70
           1
  9
$FILLMODE
 70
           1
  9
$QTEXTMODE
 70
           0
  9
$MIRRTEXT
 70
           1
  9
$LTSCALE
 40
1.0
  9
$ATTMODE
 70
           1
  9
$TEXTSIZE
 40
0.2
  9
$TRACEWID
 40
0.05
  9
$TEXTSTYLE
  7
STANDARD
  9
$CLAYER
  8
0
  9
$CELTYPE
  6
Continuous
  9
$CECOLOR
 62
           6
  9
$CELTSCALE
 40
1.0
  9
$DISPSILH
 70
           0
  9
$DIMSCALE
 40
1.0
  9
$DIMASZ
 40
0.18
  9
$DIMEXO
 40
0.0625
  9
$DIMDLI
 40
0.38
  9
$DIMRND
 40
0.0000002
  9
$DIMDLE
 40
0.0
  9
$DIMEXE
 40
0.18
  9
$DIMTP
 40
0.0
  9
$DIMTM
 40
0.0
  9
$DIMTXT
 40
0.108
  9
$DIMCEN
 40
0.09
  9
$DIMTSZ
 40
0.0
  9
$DIMTOL
 70
           0
  9
$DIMLIM
 70
           0
  9
$DIMTIH
 70
           1
  9
$DIMTOH
 70
           1
  9
$DIMSE1
 70
           0
  9
$DIMSE2
 70
           0
  9
$DIMTAD
 70
           0
  9
$DIMZIN
 70
           8
  9
$DIMBLK
  1

  9
$DIMASO
 70
           0
  9
$DIMSHO
 70
           1
  9
$DIMPOST
  1

  9
$DIMAPOST
  1

  9
$DIMALT
 70
           0
  9
$DIMALTD
 70
           2
  9
$DIMALTF
 40
25.0
  9
$DIMLFAC
 40
1.0
  9
$DIMTOFL
 70
           0
  9
$DIMTVP
 40
0.0
  9
$DIMTIX
 70
           0
  9
$DIMSOXD
 70
           0
  9
$DIMSAH
 70
           0
  9
$DIMBLK1
  1

  9
$DIMBLK2
  1

  9
$DIMSTYLE
  2
STANDARD
  9
$DIMCLRD
 70
           0
  9
$DIMCLRE
 70
           0
  9
$DIMCLRT
 70
           0
  9
$DIMTFAC
 40
1.0
  9
$DIMGAP
 40
0.09
  9
$DIMJUST
 70
           0
  9
$DIMSD1
 70
           0
  9
$DIMSD2
 70
           0
  9
$DIMTOLJ
 70
           1
  9
$DIMTZIN
 70
           0
  9
$DIMALTZ
 70
           8
  9
$DIMALTTZ
 70
           0
  9
$DIMUPT
 70
           0
  9
$DIMDEC
 70
           2
  9
$DIMTDEC
 70
           2
  9
$DIMALTU
 70
           2
  9
$DIMALTTD
 70
           2
  9
$DIMTXSTY
  7
STANDARD
  9
$DIMAUNIT
 70
           0
  9
$DIMADEC
 70
           0
  9
$DIMALTRND
 40
0.0
  9
$DIMAZIN
 70
           0
  9
$DIMDSEP
 70
           0
  9
$DIMATFIT
 70
           0
  9
$DIMFRAC
 70
           0
  9
$DIMLDRBLK
  1

  9
$DIMLUNIT
 70
           2
  9
$DIMLWD
 70
           0
  9
$DIMLWE
 70
           0
  9
$DIMTMOVE
 70
           0
  9
$LUNITS
 70
           4
  9
$LUPREC
 70
           4
  9
$SKETCHINC
 40
0.1
  9
$FILLETRAD
 40
0.0
  9
$AUNITS
 70
           0
  9
$AUPREC
 70
           0
  9
$MENU
  1
acad
  9
$ELEVATION
 40
0.0
  9
$PELEVATION
 40
0.0
  9
$THICKNESS
 40
0.0
  9
$LIMCHECK
 70
           0
  9
$CHAMFERA
 40
0.0
  9
$CHAMFERB
 40
0.0
  9
$CHAMFERC
 40
0.0
  9
$CHAMFERD
 40
0.0
  9
$SKPOLY
 70
           0
  9
$TDCREATE
 40
0.000000000
  9
$TDUCREATE
 40
0.000000000
  9
$TDUPDATE
 40
0.000000000
  9
$TDUUPDATE
 40
0.000000000
  9
$TDINDWG
 40
0.1939286806
  9
$TDUSRTIMER
 40
0.0000000000
  9
$USRTIMER
 70
           1
  9
$ANGBASE
 50
0.0
  9
$ANGDIR
 70
           0
  9
$PDMODE
 70
           0
  9
$PDSIZE
 40
0.0
  9
$PLINEWID
 40
0.0
  9
$SPLFRAME
 70
           0
  9
$SPLINETYPE
 70
           6
  9
$SPLINESEGS
 70
           8
  9
$HANDSEED
  5
61
  9
$SURFTAB1
 70
           6
  9
$SURFTAB2
 70
           6
  9
$SURFTYPE
 70
           6
  9
$SURFU
 70
           6
  9
$SURFV
 70
           6
  9
$UCSBASE
  2

  9
$UCSNAME
  2

  9
$UCSORG
 10
0.0
 20
0.0
 30
0.0
  9
$UCSXDIR
 10
1.0
 20
0.0
 30
0.0
  9
$UCSYDIR
 10
0.0
 20
1.0
 30
0.0
  9
$UCSORTHOREF
  2

  9
$UCSORTHOVIEW
 70
           0
  9
$UCSORGTOP
 10
0.0
 20
0.0
 30
0.0
  9
$UCSORGBOTTOM
 10
0.0
 20
0.0
 30
0.0
  9
$UCSORGLEFT
 10
0.0
 20
0.0
 30
0.0
  9
$UCSORGRIGHT
 10
0.0
 20
0.0
 30
0.0
  9
$UCSORGFRONT
 10
0.0
 20
0.0
 30
0.0
  9
$UCSORGBACK
 10
0.0
 20
0.0
 30
0.0
  9
$PUCSBASE
  2

  9
$PUCSNAME
  2

  9
$PUCSORG
 10
0.0
 20
0.0
 30
0.0
  9
$PUCSXDIR
 10
1.0
 20
0.0
 30
0.0
  9
$PUCSYDIR
 10
0.0
 20
1.0
 30
0.0
  9
$PUCSORTHOREF
  2

  9
$PUCSORTHOVIEW
 70
           0
  9
$PUCSORGTOP
 10
0.0
 20
0.0
 30
0.0
  9
$PUCSORGBOTTOM
 10
0.0
 20
0.0
 30
0.0
  9
$PUCSORGLEFT
 10
0.0
 20
0.0
 30
0.0
  9
$PUCSORGRIGHT
 10
0.0
 20
0.0
 30
0.0
  9
$PUCSORGFRONT
 10
0.0
 20
0.0
 30
0.0
  9
$PUCSORGBACK
 10
0.0
 20
0.0
 30
0.0
  9
$USERI1
 70
           0
  9
$USERI2
 70
           0
  9
$USERI3
 70
           0
  9
$USERI4
 70
           0
  9
$USERI5
 70
           0
  9
$USERR1
 40
0.0
  9
$USERR2
 40
0.0
  9
$USERR3
 40
0.0
  9
$USERR4
 40
0.0
  9
$USERR5
 40
0.0
  9
$WORLDVIEW
 70
           1
  9
$SHADEDGE
 70
           3
  9
$SHADEDIF
 70
          70
  9
$TILEMODE
 70
           0
  9
$MAXACTVP
 70
          16
  9
$PINSBASE
 10
0.0
 20
0.0
 30
0.0
  9
$PLIMCHECK
 70
           0
  9
$PEXTMIN
 10
-0.2499999962
 20
-0.2499999962
 30
0.0
  9
$PEXTMAX
 10
10.7499997635
 20
8.2499997635
 30
0.0
  9
$PLIMMIN
 10
-0.2499999962
 20
-0.2499999962
  9
$PLIMMAX
 10
10.7499997635
 20
8.2499997635
  9
$UNITMODE
 70
           0
  9
$VISRETAIN
 70
           0
  9
$PLINEGEN
 70
           1
  9
$PSLTSCALE
 70
           1
  9
$TREEDEPTH
 70
        3020
  9
$CMLSTYLE
  2
STANDARD
  9
$CMLJUST
 70
           0
  9
$CMLSCALE
 40
1.0
  9
$PROXYGRAPHICS
 70
           0
  9
$MEASUREMENT
 70
           0
  9
$CELWEIGHT
370
           0
  9
$ENDCAPS
280
           0
  9
$JOINSTYLE
280
           0
  9
$LWDISPLAY
290
           0
  9
$INSUNITS
 70
           0
  9
$HYPERLINKBASE
  1

  9
$STYLESHEET
  1

  9
$XEDIT
290
           1
  9
$CEPSNTYPE
380
           0
  9
$PSTYLEMODE
290
           1
  9
$FINGERPRINTGUID
  2

  9
$VERSIONGUID
  2

  9
$EXTNAMES
290
           1
  9
$PSVPSCALE
 40
0.0
  0
ENDSEC
  0
SECTION
  2
CLASSES
  0
CLASS
  1
LWPOLYLINE
  2
AcDbPolyline
  3
AutoCAD 2000
 90
        0
280
           0
281
           1
  0
CLASS
  1
IMAGE
  2
AcDbRasterImage
  3
ISM
 90
    32895
280
           0
281
           1
  0
CLASS
  1
OLE2FRAME
  2
AcDbOle2Frame
  3
AutoCAD 2000
 90
    32768
280
           0
281
           1
  0
CLASS
  1
HATCH
  2
AcDbHatch
  3
AutoCAD 2000
 90
        0
280
           0
281
           1
  0
CLASS
  1
DICTIONARYVAR
  2
AcDbDictionaryVar
  3
AutoCAD 2000
 90
    32768
280
           0
281
           0
  0
CLASS
  1
RASTERVARIABLES
  2
AcDbRasterVariables
  3
ISM
 90
    32768
280
           0
281
           0
  0
CLASS
  1
IMAGEDEF
  2
AcDbRasterImageDef
  3
ISM
 90
    32768
280
           0
281
           0
  0
CLASS
  1
IMAGEDEF_REACTOR
  2
AcDbRasterImageDefReactor
  3
ISM
 90
    32769
280
           0
281
           0
  0
CLASS
  1
IDBUFFER
  2
AcDbIdBuffer
  3
AutoCAD 2000
 90
    32768
280
           0
281
           0
  0
CLASS
  1
SPATIAL_FILTER
  2
AcDbSpatialFilter
  3
AutoCAD 2000
 90
    32768
280
           0
281
           0
  0
CLASS
  1
XRECORD
  2
AcDbXrecord
  3
AutoCAD 2000
 90
    32768
280
           0
281
           0
  0
CLASS
  1
SORTENTSTABLE
  2
AcDbSortentsTable
  3
AutoCAD 2000
 90
    32768
280
           0
281
           0
  0
CLASS
  1
LAYER_INDEX
  2
AcDbLayerIndex
  3
AutoCAD 2000
 90
    32768
280
           0
281
           0
  0
CLASS
  1
SPATIAL_INDEX
  2
AcDbSpatialIndex
  3
AutoCAD 2000
 90
    32768
280
           0
281
           0
  0
CLASS
  1
OBJECT_PTR
  2
CAseDLPNTableRecord
  3
"ASE-LPNTableRecord"
 90
    32769
280
           0
281
           0
  0
CLASS
  1
LAYOUT
  2
AcDbLayout
  3
AutoCAD 2000
 90
        0
280
           0
281
           0
  0
CLASS
  1
PLOTSETTINGS
  2
AcDbPlotSettings
  3
AutoCAD 2000
 90
    32768
280
           0
281
           0
  0
CLASS
  1
ACDBDICTIONARYWDFLT
  2
AcDbDictionaryWithDefault
  3
AutoCAD 2000
 90
        0
280
           0
281
           0
  0
CLASS
  1
ACDBPLACEHOLDER
  2
AcDbPlaceHolder
  3
AutoCAD 2000
 90
        0
280
           0
281
           0
  0
ENDSEC
  0
SECTION
  2
TABLES
  0
TABLE
  2
VPORT
  5
7
100
AcDbSymbolTable
 70
           1
  0
VPORT
  5
15
100
AcDbSymbolTableRecord
100
AcDbViewportTableRecord
  2
*ACTIVE
 70
           0
 10
0.0
 20
0.0
 11
1.0
 21
1.0
 12
4.220545748809
 22
3.662633696744
 13
0.0
 23
0.0
 14
0.5
 24
0.5
 15
0.5
 25
0.5
 16
0.0
 26
0.0
 36
1.0
 17
0.0
 27
0.0
 37
0.0
 40
8.186163213036
 41
1.455324357405
 42
50.0
 43
0.0
 44
0.0
 50
0.0
 51
0.0
 71
           0
 72
         100
 73
           1
 74
           1
 75
           0
 76
           0
 77
           0
 78
           0
281
           0
 65
           0
110
0.0
120
0.0
130
0.0
111
1.0
121
0.0
131
0.0
112
0.0
122
1.0
132
0.0
345
0
346
0
 79
           0
146
0.0
  0
ENDTAB
  0
TABLE
  2
LTYPE
  5
4
100
AcDbSymbolTable
 70
          15
  0
LTYPE
  5
11
100
AcDbSymbolTableRecord
100
AcDbLinetypeTableRecord
  2
ByBlock
 70
          64
  3

 72
          65
 73
           0
 40
0.0
  0
LTYPE
  5
12
100
AcDbSymbolTableRecord
100
AcDbLinetypeTableRecord
  2
ByLayer
 70
          64
  3

 72
          65
 73
           0
 40
0.0
  0
LTYPE
  5
13
100
AcDbSymbolTableRecord
100
AcDbLinetypeTableRecord
  2
Continuous
 70
          64
  3
Solid line
 72
          65
 73
           0
 40
0.0
  0
LTYPE
  5
24
100
AcDbSymbolTableRecord
100
AcDbLinetypeTableRecord
  2
BORDER
 70
           0
  3
BORDER
 72
          65
 73
           6
 40
1.75
 49
0.5
 74
           0
 49
-0.25
 74
           0
 49
0.5
 74
           0
 49
-0.25
 74
           0
 49
0.0
 74
           0
 49
-0.25
 74
           0
  0
LTYPE
  5
25
100
AcDbSymbolTableRecord
100
AcDbLinetypeTableRecord
  2
CENTER
 70
           0
  3
CENTER
 72
          65
 73
           4
 40
2.0
 49
1.25
 74
           0
 49
-0.25
 74
           0
 49
0.25
 74
           0
 49
-0.25
 74
           0
  0
LTYPE
  5
26
100
AcDbSymbolTableRecord
100
AcDbLinetypeTableRecord
  2
DASHDOT
 70
           0
  3
DASHDOT
 72
          65
 73
           4
 40
1.0
 49
0.5
 74
           0
 49
-0.25
 74
           0
 49
0.0
 74
           0
 49
-0.25
 74
           0
  0
LTYPE
  5
27
100
AcDbSymbolTableRecord
100
AcDbLinetypeTableRecord
  2
DASHED
 70
           0
  3
DASHED
 72
          65
 73
           2
 40
0.75
 49
0.5
 74
           0
 49
-0.25
 74
           0
  0
LTYPE
  5
28
100
AcDbSymbolTableRecord
100
AcDbLinetypeTableRecord
  2
DIVIDE
 70
           0
  3
DIVIDE
 72
          65
 73
           6
 40
1.25
 49
0.5
 74
           0
 49
-0.25
 74
           0
 49
0.0
 74
           0
 49
-0.25
 74
           0
 49
0.0
 74
           0
 49
-0.25
 74
           0
  0
LTYPE
  5
29
100
AcDbSymbolTableRecord
100
AcDbLinetypeTableRecord
  2
DOT
 70
           0
  3
DOT
 72
          65
 73
           2
 40
0.25
 49
0.0
 74
           0
 49
-0.25
 74
           0
  0
LTYPE
  5
2A
100
AcDbSymbolTableRecord
100
AcDbLinetypeTableRecord
  2
HIDDEN
 70
           0
  3
HIDDEN
 72
          65
 73
           2
 40
0.375
 49
0.25
 74
           0
 49
-0.125
 74
           0
  0
LTYPE
  5
2B
100
AcDbSymbolTableRecord
100
AcDbLinetypeTableRecord
  2
PHANTOM
 70
           0
  3
PHANTOM
 72
          65
 73
           6
 40
2.5
 49
1.25
 74
           0
 49
-0.25
 74
           0
 49
0.25
 74
           0
 49
-0.25
 74
           0
 49
0.25
 74
           0
 49
-0.25
 74
           0
  0
LTYPE
  5
2C
100
AcDbSymbolTableRecord
100
AcDbLinetypeTableRecord
  2
$INVISIBLE
 70
           0
  3
$INVISIBLE
 72
          65
 73
           2
 40
200.0
 49
-100.0
 74
           0
 49
-100.0
 74
           0
  0
LTYPE
  5
2D
100
AcDbSymbolTableRecord
100
AcDbLinetypeTableRecord
  2
$SNAPEXT
 70
           0
  3
$SNAPEXT
 72
          65
 73
           2
 40
0.04
 49
0.02
 74
           0
 49
-0.02
 74
           0
  0
LTYPE
  5
2E
100
AcDbSymbolTableRecord
100
AcDbLinetypeTableRecord
  2
$CONSTRUCTION
 70
           0
  3
$CONSTRUCTION
 72
          65
 73
           4
 40
0.3
 49
0.2
 74
           0
 49
-0.05
 74
           0
 49
0.0
 74
           0
 49
-0.05
 74
           0
  0
LTYPE
  5
2F
100
AcDbSymbolTableRecord
100
AcDbLinetypeTableRecord
  2
$AUXILIARY
 70
           0
  3
$AUXILIARY
 72
          65
 73
           2
 40
0.1
 49
0.05
 74
           0
 49
-0.05
 74
           0
  0
ENDTAB
  0
TABLE
  2
LAYER
  5
2
100
AcDbSymbolTable
 70
           6
  0
LAYER
  5
14
100
AcDbSymbolTableRecord
100
AcDbLayerTableRecord
  2
0
 70
           0
 62
           7
  6
Continuous
290
           1
370
           0
390
0
1001
TCAD
1000
TCW_LAYER_ORDER
1002
{
1071
        0
1002
}
  0
LAYER
  5
30
100
AcDbSymbolTableRecord
100
AcDbLayerTableRecord
  2
$CONSTRUCTION
 70
           0
 62
           9
  6
$CONSTRUCTION
290
           1
370
           0
390
0
1001
TCAD
1000
TCW_LAYER_ORDER
1002
{
1071
        0
1002
}
  0
LAYER
  5
31
100
AcDbSymbolTableRecord
100
AcDbLayerTableRecord
  2
LAYER_1
 70
           0
 62
           7
  6
Continuous
290
           1
370
           0
390
0
1001
TCAD
1000
TCW_LAYER_ORDER
1002
{
1071
        0
1002
}
  0
LAYER
  5
32
100
AcDbSymbolTableRecord
100
AcDbLayerTableRecord
  2
LAYER_2
 70
           0
 62
           7
  6
Continuous
290
           1
370
           0
390
0
1001
TCAD
1000
TCW_LAYER_ORDER
1002
{
1071
        0
1002
}
  0
LAYER
  5
33
100
AcDbSymbolTableRecord
100
AcDbLayerTableRecord
  2
7
 70
           0
 62
           7
  6
Continuous
290
           1
370
           0
390
0
1001
TCAD
1000
TCW_LAYER_ORDER
1002
{
1071
        0
1002
}
  0
LAYER
  5
34
100
AcDbSymbolTableRecord
100
AcDbLayerTableRecord
  2
image
 70
           0
 62
           7
  6
Continuous
290
           1
370
           0
390
0
1001
TCAD
1000
TCW_LAYER_ORDER
1002
{
1071
        0
1002
}
  0
ENDTAB
  0
TABLE
  2
STYLE
  5
3
100
AcDbSymbolTable
 70
           5
  0
STYLE
  5
17
100
AcDbSymbolTableRecord
100
AcDbTextStyleTableRecord
  2
STANDARD
 70
           0
 40
0.0
 41
1.0
 50
0.0
 71
           0
 42
0.20000000298
  3
ARIAL.TTF
  4

1001
ACAD
1000
Arial
1071
       34
  0
STYLE
  5
36
100
AcDbSymbolTableRecord
100
AcDbTextStyleTableRecord
  2
Annotative
 70
           0
 40
0.0
 41
1.0
 50
0.0
 71
           0
 42
0.20000000298
  3
TXT.SHX
  4

  0
STYLE
  5
37
100
AcDbSymbolTableRecord
100
AcDbTextStyleTableRecord
  2
_TCW_TXTSTY_1
 70
           0
 40
0.0
 41
1.0
 50
0.0
 71
           0
 42
0.600000023842
  3
TIMES.TTF
  4

1001
ACAD
1000
Times New Roman
1071
      290
  0
STYLE
  5
3C
100
AcDbSymbolTableRecord
100
AcDbTextStyleTableRecord
  2
_TCW_TXTSTY_2
 70
           0
 40
0.0
 41
1.22000002861
 50
0.0
 71
           0
 42
0.08749999851
  3
TIMES.TTF
  4

1001
ACAD
1000
Times New Roman
1071
      290
  0
STYLE
  5
5E
100
AcDbSymbolTableRecord
100
AcDbTextStyleTableRecord
  2
_TCW_TXTSTY_3
 70
           0
 40
0.0
 41
1.0
 50
0.0
 71
           0
 42
0.058333333582
  3

  4

1001
ACAD
1000
AvantGarde Bk BT
1071
 16777506
  0
ENDTAB
  0
TABLE
  2
VIEW
  5
5
100
AcDbSymbolTable
 70
           1
  0
VIEW
  5
35
100
AcDbSymbolTableRecord
100
AcDbViewTableRecord
  2
View_0
 70
           0
 40
8.267716535433
 10
5.846456692913
 20
4.133858267717
 41
11.692913385827
 11
0.0
 21
0.0
 31
1.0
 12
0.0
 22
0.0
 32
0.0
 42
92.090489446729
 43
0.0
 44
0.0
 50
0.0
 71
           0
281
           0
 72
           0
110
0.0
120
0.0
130
0.0
111
1.0
121
0.0
131
0.0
112
0.0
122
1.0
132
0.0
  0
ENDTAB
  0
TABLE
  2
UCS
  5
6
100
AcDbSymbolTable
 70
           0
  0
ENDTAB
  0
TABLE
  2
APPID
  5
8
100
AcDbSymbolTable
 70
           2
  0
APPID
  5
16
100
AcDbSymbolTableRecord
100
AcDbRegAppTableRecord
  2
ACAD
 70
           0
  0
APPID
  5
23
100
AcDbSymbolTableRecord
100
AcDbRegAppTableRecord
  2
TCAD
 70
           0
  0
ENDTAB
  0
TABLE
  2
DIMSTYLE
  5
9
100
AcDbSymbolTable
 70
           2
100
AcDbDimStyleTable
 71
           0
  0
DIMSTYLE
105
18
100
AcDbSymbolTableRecord
100
AcDbDimStyleTableRecord
  2
STANDARD
 70
           0
  3

  4

 40
1.0
 41
0.18
 42
0.0625
 43
0.38
 44
0.18
 45
0.0000002
 46
0.0
 47
0.0
 48
0.0
 71
           0
 72
           0
 73
           1
 74
           1
 75
           0
 76
           0
 77
           0
 78
           8
 79
           0
140
0.108
141
0.09
142
0.0
143
25.0
144
1.0
145
0.0
146
1.0
147
0.09
148
0.01
170
           0
171
           2
172
           0
173
           0
174
           0
175
           0
176
           0
177
           0
178
           0
179
           0
271
           2
272
           2
273
           2
274
           2
275
           0
276
           0
277
           2
278
          46
279
           0
280
           0
281
           0
282
           0
283
           1
284
           0
285
           8
286
           0
288
           0
340
37
341
0
342
0
343
0
344
0
371
          -2
372
          -2
  0
DIMSTYLE
105
38
100
AcDbSymbolTableRecord
100
AcDbDimStyleTableRecord
  2
Annotative
 70
           0
  3
<>
  4
<>
 40
1.0
 41
0.18
 42
0.0625
 43
0.38
 44
0.18
 45
0.0000001
 46
0.0
 47
0.0
 48
0.0
 71
           0
 72
           0
 73
           1
 74
           1
 75
           0
 76
           0
 77
           0
 78
           0
 79
           0
140
0.18
141
0.09
142
0.0
143
25.4
144
1.0
145
0.0
146
1.0
147
0.09
148
0.0000001
170
           0
171
           2
172
           0
173
           0
174
           0
175
           0
176
           0
177
           0
178
           0
179
           4
271
           4
272
           4
273
           2
274
           2
275
           0
276
           0
277
           2
278
          46
279
           0
280
           0
281
           0
282
           0
283
           1
284
           0
285
           0
286
           0
288
           0
340
36
341
0
342
0
343
0
344
0
371
          -2
372
          -2
  0
ENDTAB
  0
TABLE
  2
BLOCK_RECORD
  5
1
100
AcDbSymbolTable
 70
           2
  0
BLOCK_RECORD
  5
A
100
AcDbSymbolTableRecord
100
AcDbBlockTableRecord
  2
*MODEL_SPACE
340
39
  0
BLOCK_RECORD
  5
B
100
AcDbSymbolTableRecord
100
AcDbBlockTableRecord
  2
*PAPER_SPACE
340
60
  0
BLOCK_RECORD
  5
40
100
AcDbSymbolTableRecord
100
AcDbBlockTableRecord
  2
*D0
340
0
  0
BLOCK_RECORD
  5
4F
100
AcDbSymbolTableRecord
100
AcDbBlockTableRecord
  2
*D1
340
0
  0
ENDTAB
  0
ENDSEC
  0
SECTION
  2
BLOCKS
  0
BLOCK
  5
D
100
AcDbEntity
  8
0
100
AcDbBlockBegin
  2
*MODEL_SPACE
 70
           0
 10
0.0
 20
0.0
 30
0.0
  3
*MODEL_SPACE
  1

  0
ENDBLK
  5
E
100
AcDbEntity
  8
0
100
AcDbBlockEnd
  0
BLOCK
  5
F
100
AcDbEntity
 67
           1
  8
0
100
AcDbBlockBegin
  2
*PAPER_SPACE
 70
           0
 10
0.0
 20
0.0
 30
0.0
  3
*PAPER_SPACE
  1

  0
ENDBLK
  5
10
100
AcDbEntity
 67
           1
  8
0
100
AcDbBlockEnd
  0
BLOCK
  5
41
100
AcDbEntity
  8
0
100
AcDbBlockBegin
  2
*D0
 70
           1
 10
0.0
 20
0.0
 30
0.0
  3
*D0
  1

  0
LINE
  5
42
100
AcDbEntity
  8
0
370
           0
  6
Continuous
 62
           0
100
AcDbLine
 10
6.972493024645
 20
5.782303268075
 30
0.0
 11
6.972493024645
 21
6.532014820479
 31
0.0
1001
TCAD
1000
TCW_ATTRIBUTE
1002
{
1000
<5 1/4">
1002
}
  0
LINE
  5
43
100
AcDbEntity
  8
0
370
           0
  6
Continuous
 62
           0
100
AcDbLine
 10
1.722493024645
 20
2.907303268075
 30
0.0
 11
1.722493024645
 21
6.532014820479
 31
0.0
1001
TCAD
1000
TCW_ATTRIBUTE
1002
{
1000
<5 1/4">
1002
}
  0
LWPOLYLINE
  5
44
100
AcDbEntity
  8
0
370
           0
  6
Continuous
 62
           0
100
AcDbPolyline
 90
        4
 70
           0
 10
6.792493024645
 20
6.352014820479
 10
6.792493024645
 20
6.352014820479
 10
6.792493024645
 20
6.352014820479
 10
4.635469222988
 20
6.352014820479
1001
TCAD
1000
TCW_ATTRIBUTE
1002
{
1000
<5 1/4">
1002
}
  0
LWPOLYLINE
  5
45
100
AcDbEntity
  8
0
370
           0
  6
Continuous
 62
           0
100
AcDbPolyline
 90
        4
 70
           0
 10
1.902493024645
 20
6.352014820479
 10
1.902493024645
 20
6.352014820479
 10
1.902493024645
 20
6.352014820479
 10
4.059516826302
 20
6.352014820479
1001
TCAD
1000
TCW_ATTRIBUTE
1002
{
1000
<5 1/4">
1002
}
  0
LWPOLYLINE
  5
48
100
AcDbEntity
  8
0
370
           0
  6
Continuous
 62
           0
100
AcDbPolyline
 90
        4
 70
           0
 10
6.972493024645
 20
6.352014820479
 40
0.0
 41
0.0
 10
6.792493024645
 20
6.375414820479
 40
0.0
 41
0.0
 10
6.792493024645
 20
6.328614820479
 40
0.0
 41
0.0
 10
6.972493024645
 20
6.352014820479
 40
0.0
 41
0.0
1001
TCAD
1000
TCW_ATTRIBUTE
1002
{
1000
<5 1/4">
1002
}
  0
HATCH
  5
46
100
AcDbEntity
  8
0
  6
Continuous
 62
           0
100
AcDbHatch
 10
0.0
 20
0.0
 30
0.0
210
0.0
220
0.0
230
1.0
  2
SOLID
 70
           1
 71
           1
 91
        1
 92
        3
 72
           0
 73
           1
 93
        3
 10
6.9724930246447174
 20
6.3520148204787921
 10
6.7924930246447177
 20
6.3754148204787917
 10
6.7924930246447177
 20
6.3286148204787924
 97
        1
330
47
 75
           0
 76
           0
 98
        0
1001
TCAD
1000
TCW_ATTRIBUTE
1002
{
1000
<5 1/4">
1002
}
  0
LWPOLYLINE
  5
4B
100
AcDbEntity
  8
0
370
           0
  6
Continuous
 62
           0
100
AcDbPolyline
 90
        4
 70
           0
 10
1.722493024645
 20
6.352014820479
 40
0.0
 41
0.0
 10
1.902493024645
 20
6.328614820479
 40
0.0
 41
0.0
 10
1.902493024645
 20
6.375414820479
 40
0.0
 41
0.0
 10
1.722493024645
 20
6.352014820479
 40
0.0
 41
0.0
1001
TCAD
1000
TCW_ATTRIBUTE
1002
{
1000
<5 1/4">
1002
}
  0
HATCH
  5
49
100
AcDbEntity
  8
0
  6
Continuous
 62
           0
100
AcDbHatch
 10
0.0
 20
0.0
 30
0.0
210
0.0
220
0.0
230
1.0
  2
SOLID
 70
           1
 71
           1
 91
        1
 92
        3
 72
           0
 73
           1
 93
        3
 10
1.7224930246447192
 20
6.3520148204787921
 10
1.9024930246447191
 20
6.3286148204787924
 10
1.9024930246447191
 20
6.3754148204787917
 97
        1
330
4A
 75
           0
 76
           0
 98
        0
1001
TCAD
1000
TCW_ATTRIBUTE
1002
{
1000
<5 1/4">
1002
}
  0
MTEXT
  5
4C
100
AcDbEntity
  8
0
  6
Continuous
 62
           0
100
AcDbMText
 10
4.347493024645
 20
6.352014820479
 30
0.0
 40
0.108000004292
 41
0.0
 71
           5
 72
           1
  1
\A1;5 1/4"{}
  7
_TCW_TXTSTY_1
 73
           1
 44
1.0
1001
TCAD
1000
TCW_REFPOINT
1002
{
1010
4.347493024645
1020
6.352014820479
1030
0.0
1002
}
1000
TCW_ATTRIBUTE
1002
{
1000
<5 1/4">
1002
}
  0
ENDBLK
  5
4D
100
AcDbEntity
  8
0
100
AcDbBlockEnd
  0
BLOCK
  5
50
100
AcDbEntity
  8
0
100
AcDbBlockBegin
  2
*D1
 70
           1
 10
0.0
 20
0.0
 30
0.0
  3
*D1
  1

  0
LINE
  5
51
100
AcDbEntity
  8
0
370
           0
  6
Continuous
 62
           0
100
AcDbLine
 10
5.260210071625
 20
5.719803268075
 30
0.0
 11
1.128367407097
 21
5.719803268075
 31
0.0
1001
TCAD
1000
TCW_ATTRIBUTE
1002
{
1000
<2 7/8">
1002
}
  0
LINE
  5
52
100
AcDbEntity
  8
0
370
           0
  6
Continuous
 62
           0
100
AcDbLine
 10
1.659993024645
 20
2.844803268075
 30
0.0
 11
1.128367407097
 21
2.844803268075
 31
0.0
1001
TCAD
1000
TCW_ATTRIBUTE
1002
{
1000
<2 7/8">
1002
}
  0
LWPOLYLINE
  5
53
100
AcDbEntity
  8
0
370
           0
  6
Continuous
 62
           0
100
AcDbPolyline
 90
        4
 70
           0
 10
1.308367407097
 20
5.539803268075
 10
1.308367407097
 20
5.539803268075
 10
1.308367407097
 20
5.539803268075
 10
1.308367407097
 20
4.462303271651
1001
TCAD
1000
TCW_ATTRIBUTE
1002
{
1000
<2 7/8">
1002
}
  0
LWPOLYLINE
  5
54
100
AcDbEntity
  8
0
370
           0
  6
Continuous
 62
           0
100
AcDbPolyline
 90
        4
 70
           0
 10
1.308367407097
 20
3.024803268075
 10
1.308367407097
 20
3.024803268075
 10
1.308367407097
 20
3.024803268075
 10
1.308367407097
 20
4.102303264499
1001
TCAD
1000
TCW_ATTRIBUTE
1002
{
1000
<2 7/8">
1002
}
  0
LWPOLYLINE
  5
57
100
AcDbEntity
  8
0
370
           0
  6
Continuous
 62
           0
100
AcDbPolyline
 90
        4
 70
           0
 10
1.308367407097
 20
5.719803268075
 40
0.0
 41
0.0
 10
1.284967407097
 20
5.539803268075
 40
0.0
 41
0.0
 10
1.331767407097
 20
5.539803268075
 40
0.0
 41
0.0
 10
1.308367407097
 20
5.719803268075
 40
0.0
 41
0.0
1001
TCAD
1000
TCW_ATTRIBUTE
1002
{
1000
<2 7/8">
1002
}
  0
HATCH
  5
55
100
AcDbEntity
  8
0
  6
Continuous
 62
           0
100
AcDbHatch
 10
0.0
 20
0.0
 30
0.0
210
0.0
220
0.0
230
1.0
  2
SOLID
 70
           1
 71
           1
 91
        1
 92
        3
 72
           0
 73
           1
 93
        3
 10
1.3083674070974753
 20
5.7198032680751068
 10
1.2849674070974753
 20
5.539803268075107
 10
1.3317674070974754
 20
5.539803268075107
 97
        1
330
56
 75
           0
 76
           0
 98
        0
1001
TCAD
1000
TCW_ATTRIBUTE
1002
{
1000
<2 7/8">
1002
}
  0
LWPOLYLINE
  5
5A
100
AcDbEntity
  8
0
370
           0
  6
Continuous
 62
           0
100
AcDbPolyline
 90
        4
 70
           0
 10
1.308367407097
 20
2.844803268075
 40
0.0
 41
0.0
 10
1.331767407097
 20
3.024803268075
 40
0.0
 41
0.0
 10
1.284967407097
 20
3.024803268075
 40
0.0
 41
0.0
 10
1.308367407097
 20
2.844803268075
 40
0.0
 41
0.0
1001
TCAD
1000
TCW_ATTRIBUTE
1002
{
1000
<2 7/8">
1002
}
  0
HATCH
  5
58
100
AcDbEntity
  8
0
  6
Continuous
 62
           0
100
AcDbHatch
 10
0.0
 20
0.0
 30
0.0
210
0.0
220
0.0
230
1.0
  2
SOLID
 70
           1
 71
           1
 91
        1
 92
        3
 72
           0
 73
           1
 93
        3
 10
1.3083674070974753
 20
2.844803268075101
 10
1.3317674070974754
 20
3.0248032680751011
 10
1.2849674070974753
 20
3.0248032680751011
 97
        1
330
59
 75
           0
 76
           0
 98
        0
1001
TCAD
1000
TCW_ATTRIBUTE
1002
{
1000
<2 7/8">
1002
}
  0
MTEXT
  5
5B
100
AcDbEntity
  8
0
  6
Continuous
 62
           0
100
AcDbMText
 10
1.308367407097
 20
4.282303268075
 30
0.0
 40
0.108000004292
 41
0.0
 71
           5
 72
           1
  1
\A1;2 7/8"{}
  7
_TCW_TXTSTY_1
 73
           1
 44
1.0
1001
TCAD
1000
TCW_REFPOINT
1002
{
1010
1.308367407097
1020
4.282303268075
1030
0.0
1002
}
1000
TCW_ATTRIBUTE
1002
{
1000
<2 7/8">
1002
}
  0
ENDBLK
  5
5C
100
AcDbEntity
  8
0
100
AcDbBlockEnd
  0
ENDSEC
  0
SECTION
  2
ENTITIES
  0
VIEWPORT
  5
3A
100
AcDbEntity
 67
           1
  8
0
100
AcDbViewport
 10
2.2704453628
 20
3.9444401109
 30
0.0
 40
2.9783806794
 41
2.0465408032
 68
           1
 69
           1
 12
2.2704453628
 22
3.9444401109
 13
0.0
 23
0.0
 14
0.5
 24
0.5
 15
0.5
 25
0.5
 16
0.0
 26
0.0
 36
1.0
 17
0.0
 27
0.0
 37
0.0
 42
50.0
 43
0.0
 44
0.0
 45
2.0465408032
 50
0.0
 51
0.0
 72
         100
 90
    32800
340
0
  1

281
           0
 71
           0
 74
           1
110
0.0
120
0.0
130
0.0
111
1.0
121
0.0
131
0.0
112
0.0
122
1.0
132
0.0
345
0
346
0
 79
           0
146
0.0
  0
TEXT
  5
3B
100
AcDbEntity
 67
           1
  8
0
  6
Continuous
 62
           7
100
AcDbText
 10
3.986302774249
 20
3.831091598276
 30
0.0
 40
0.133333003521
  1
#3366-A
  7
_TCW_TXTSTY_1
 11
3.986302774249
 21
3.964424601797
 31
0.0
100
AcDbText
 73
           3
1001
TCAD
1000
TCW40_TEXT
1002
{
1000
Times New Roman
1070
           0
1070
         257
1002
}
  0
MTEXT
  5
3D
100
AcDbEntity
 67
           1
  8
0
  6
Continuous
 62
           7
100
AcDbMText
 10
3.986302774249
 20
3.584937267471
 30
0.0
 40
0.08749999702
 41
1.350353
 71
           1
 72
           1
  1
{Saroyan Lumber Co.\P(800) 624-9309}
  7
_TCW_TXTSTY_2
 73
           1
 44
1.0
1001
TCAD
1000
TCW_REFPOINT
1002
{
1010
3.986302774249
1020
3.584937267471
1030
0.0
1002
}
1000
TCW40_TEXT
1002
{
1000
Times New Roman
1070
           0
1070
         257
1002
}
  0
TEXT
  5
3E
100
AcDbEntity
 67
           1
  8
0
  6
Continuous
 62
           7
100
AcDbText
 10
3.986010774249
 20
3.650337598816
 30
0.0
 40
0.10000000298
  1
2-7/8 x 5-1/4
  7
_TCW_TXTSTY_1
 11
3.986010774249
 21
3.750337601797
 31
0.0
100
AcDbText
 73
           3
1001
TCAD
1000
TCW_REFPOINT
1002
{
1010
3.986010774249
1020
3.783670601797
1030
0.0
1002
}
1000
TCW40_TEXT
1002
{
1000
Times New Roman
1070
           0
1070
         257
1002
}
  0
LWPOLYLINE
  5
3F
100
AcDbEntity
 67
           1
  8
0
 62
           7
100
AcDbPolyline
 90
       15
 70
           1
 10
1.722493024645
 20
2.844803268075
 10
2.170518403709
 20
2.844803268075
 42
0.414213562373
 10
2.220518403709
 20
2.894803268075
 10
2.220518403709
 20
3.009086313865
 10
2.472033610656
 20
3.002830514963
 10
2.472033610656
 20
3.228689417556
 42
-0.269454383248
 10
2.530468615552
 20
3.740067002989
 42
-0.132235838116
 10
3.103137912545
 20
4.189488737712
 42
-0.09411384805
 10
6.790990168659
 20
4.961158337805
 10
6.790990168659
 20
5.211919924714
 10
6.922493024645
 20
5.211919924714
 42
0.414213562373
 10
6.972493024645
 20
5.261919924714
 10
6.972493024645
 20
5.719803268075
 10
5.322710071625
 20
5.719803268075
 10
1.782071876931
 20
4.07351497547
  0
DIMENSION
  5
4E
100
AcDbEntity
 67
           1
  8
0
  6
Continuous
 62
           0
100
AcDbDimension
  2
*D0
 10
1.722493024645
 20
6.352014820479
 30
0.0
 11
4.347493024645
 21
6.352014820479
 31
0.0
 71
           5
 72
           1
 41
1.0
 42
0.0
  1
<5 1/4">
  3
STANDARD
100
AcDbAlignedDimension
 13
6.972493024645
 23
5.719803268075
 33
0.0
 14
1.722493024645
 24
2.844803268075
 34
0.0
 50
180.0
100
AcDbRotatedDimension
1001
TCAD
1000
TCW_CUSTOM_DATA
1002
{
1000
#$AUX@_ToolInfo Properties
1070
           8
1000
Insert^JDimension^JOrthogonal@Dimension Orthogonal
1002
}
1001
ACAD
1000
DSTYLE
1002
{
1070
           3
1000
<>"
1070
         270
1070
           4
1002
}
  0
DIMENSION
  5
5D
100
AcDbEntity
 67
           1
  8
0
  6
Continuous
 62
           0
100
AcDbDimension
  2
*D1
 10
1.308367407097
 20
2.844803268075
 30
0.0
 11
1.308367407097
 21
4.282303268075
 31
0.0
 71
           5
 72
           1
 41
1.0
 42
0.0
  1
<2 7/8">
  3
STANDARD
100
AcDbAlignedDimension
 13
5.322710071625
 23
5.719803268075
 33
0.0
 14
1.722493024645
 24
2.844803268075
 34
0.0
 50
-90.0
100
AcDbRotatedDimension
1001
TCAD
1000
TCW_CUSTOM_DATA
1002
{
1000
#$AUX@_ToolInfo Properties
1070
           8
1000
Insert^JDimension^JOrthogonal@Dimension Orthogonal
1002
}
1001
ACAD
1000
DSTYLE
1002
{
1070
         271
1070
           4
1070
           3
1000
<>"
1070
         272
1070
           4
1070
         270
1070
           4
1002
}
  0
TEXT
  5
5F
100
AcDbEntity
 67
           1
  8
0
  6
Continuous
 62
           7
100
AcDbText
 10
1.813084435359
 20
3.965615293774
 30
0.0
 40
0.058333334327
  1
© 2007 The Premium Series
 50
24.120490165304
  7
_TCW_TXTSTY_3
 72
           2
 11
2.700251885379
 21
4.426759054656
 31
0.0
100
AcDbText
 73
           3
1001
TCAD
1000
TCW40_TEXT
1002
{
1000
AvantGarde Bk BT
1070
           1
1070
         260
1002
}
  0
ENDSEC
  0
SECTION
  2
OBJECTS
  0
DICTIONARY
  5
19
100
AcDbDictionary
280
           0
281
           1
  3
ACAD_GROUP
350
1A
  3
ACAD_MLINESTYLE
350
1B
  3
ACAD_LAYOUT
350
1E
  3
ACAD_PLOTSETTINGS
350
22
  3
ACAD_PLOTSTYLENAME
350
1F
  0
DICTIONARY
  5
1A
102
{ACAD_REACTORS
330
19
102
}
100
AcDbDictionary
280
           0
281
           1
  0
DICTIONARY
  5
1B
102
{ACAD_REACTORS
330
19
102
}
100
AcDbDictionary
280
           0
281
           1
  3
Standard
350
1C
  0
MLINESTYLE
  5
1C
100
AcDbMlineStyle
  2
STANDARD
 70
           0
  3

 62
         256
 51
90.0
 52
90.0
 71
           2
 49
0.5
 62
         256
  6
ByLayer
 49
-0.5
 62
         256
  6
ByLayer
  0
ACDBDICTIONARYWDFLT
  5
1F
102
{ACAD_REACTORS
330
19
102
}
100
AcDbDictionary
281
           1
  3
Normal
350
1D
100
AcDbDictionaryWithDefault
340
1D
  0
ACDBPLACEHOLDER
  5
1D
102
{ACAD_REACTORS
330
1F
102
}
  0
LAYOUT
  5
21
102
{ACAD_REACTORS
330
1E
102
}
100
AcDbPlotSettings
  1

  2

  4

  6

 40
0.0
 41
0.0
 42
0.0
 43
0.0
 44
0.0
 45
0.0
 46
0.0
 47
0.0
 48
0.0
 49
0.0
140
0.0
141
0.0
142
1.0
143
1.0
 70
           0
 72
           0
 73
           0
 74
           0
  7

 75
           0
147
1.0
148
0.0
149
0.0
100
AcDbLayout
  1
Layout1
 70
           0
 71
           0
 10
0.0
 20
0.0
 11
0.0
 21
0.0
 12
0.0
 22
0.0
 32
0.0
 14
0.0
 24
0.0
 34
0.0
 15
0.0
 25
0.0
 35
0.0
146
0.0
 13
0.0
 23
0.0
 33
0.0
 16
0.0
 26
0.0
 36
0.0
 17
0.0
 27
0.0
 37
0.0
 76
           0
330
B
331
0
345
0
346
0
  0
DICTIONARY
  5
1E
102
{ACAD_REACTORS
330
19
102
}
100
AcDbDictionary
280
           0
281
           1
  3
Model
350
39
  3
Paper 1
350
60
  0
DICTIONARY
  5
22
102
{ACAD_REACTORS
330
19
102
}
100
AcDbDictionary
280
           0
281
           1
  0
LAYOUT
  5
39
100
AcDbPlotSettings
  1

  2

  4

  6

 40
0.0
 41
0.0
 42
0.0
 43
0.0
 44
0.0
 45
0.0
 46
0.0
 47
0.0
 48
0.0
 49
0.0
140
0.0
141
0.0
142
1.0
143
1.0
 70
           0
 72
           0
 73
           0
 74
           0
  7

 75
           0
147
1.0
148
0.0
149
0.0
100
AcDbLayout
  1
Model
 70
           0
 71
           0
 10
0.0
 20
0.0
 11
0.0
 21
0.0
 12
0.0
 22
0.0
 32
0.0
 14
0.0
 24
0.0
 34
0.0
 15
0.0
 25
0.0
 35
0.0
146
0.0
 13
0.0
 23
0.0
 33
0.0
 16
0.0
 26
0.0
 36
0.0
 17
0.0
 27
0.0
 37
0.0
 76
           0
330
A
331
0
345
0
346
0
  0
LAYOUT
  5
60
100
AcDbPlotSettings
  1

  2

  4

  6

 40
6.3500061035
 41
6.3500061035
 42
6.3499999046
 43
6.3499999046
 44
279.39999389638
 45
215.89999389638
 46
-0.00000620002
 47
-0.00000620002
 48
0.0
 49
0.0
140
0.0
141
0.0
142
1.0
143
1.0
 70
           0
 72
           0
 73
           0
 74
           0
  7

 75
           0
147
1.0
148
0.0
149
0.0
100
AcDbLayout
  1
Paper 1
 70
           1
 71
           1
 10
-6.34999990348
 20
-6.34999990348
 11
273.0499939929
 21
209.5499939929
 12
0.0
 22
0.0
 32
0.0
 14
0.0
 24
0.0
 34
0.0
 15
0.0
 25
0.0
 35
0.0
146
0.0
 13
0.0
 23
0.0
 33
0.0
 16
0.0
 26
0.0
 36
0.0
 17
0.0
 27
0.0
 37
0.0
 76
           0
330
B
331
3A
345
0
346
0
  0
ENDSEC
  0
EOF
